.
Авторизация | Регистрация
Хочешь лучшие торренты? Добавь свой email!
Добавить
» » Долгий поцелуй на ночь / The Long Kiss Goodnight (1996) DVD9 | P скачать торрент бесплатно




    Долгий поцелуй на ночь / The Long Kiss Goodnight (1996) DVD9 | P скачать торрент бесплатно

    Опубликовал: Админ | Дата: 12-06-2015, 06:02 | Просмотров: 134



    Детально о кино
    Русское название: Долгий поцелуй на ночь
    Русское название в мировом прокате: The Long Kiss Goodnight
    Создали в: 1996
    Категория жанра: боевик, триллер, драма, криминал, детектив
    Главный режиссер: Ренни Харлин

    Актеры
    Джина Дэвис, Сэмюэл Л. Джексон, Ивонн Зима, Крэйг Бирко, Брайан Кокс, Том Амандес, Патрик Мэлахайд, Дэвид Морс, Джозеф МакКенна, Мелина Канакаридис

    Сюжет фильма

    8 лет назад школьная учительница Саманта Кейн перенесла полную потерю памяти. Она живет с 8-летней дочкой счастливой семейной жизнью и не подозревает о своем кровавом прошлом, ведь когда-то эта красивая женщина была агентом Чарли Бэлтимор, выполнявшим секретные заказы ЦРУ.
    Шокированная неожиданным возвращением некоторых навыков и психологической подготовки профессионального киллера, Саманта пытается разобраться в своем прошлом. Детектив Митч Хенесси, начавший с расследования жизни простой учительницы, оказывается втянутым вместе с Самантой в секретную операцию ЦРУ.


    лицам до 17 лет обязательно присутствие взрослого
    Снималось в: США
    Киностудия: Forge, New Line Cinema
    Время просмотра: 116 мин./01: 56
    Перевод текста: профессиональный (многоголосый, закадровый)
    Файл
    Кодек для видео: MPEG2
    Качество фильма: DVD9 Союз-Видео
    Информация о видео: PAL 16: 9 (720x576@1024x576) CBR 7500 Kbps, 25.000 fps
    Информация о звуке 1: Dolby AC3, 6 ch, 48.0 KHz, 448 Kbps (русский, английский)
    Информация о звуке 2: Dolby AC3, 2 ch, 48.0 KHz, 192 Kbps (русский)
    Субтитры: русские, украинские
    MediaInfo
    Общее
    Полное имя : D: THE_LONG_KISS_GOODNIGHTVIDEO_TSVTS_02_1.VOB
    Формат : MPEG-PS
    Размер файла : 1024 Мбайт
    Продолжительность : 16 м.
    Общий поток : 8737 Кбит/сек
    Видео
    Идентификатор : 224 (0xE0)
    Формат : MPEG Video
    Версия формата : Version 2
    Профиль формата : Main@Main
    Параметр BVOP формата : Да
    Параметр матрицы формата : Выборочная
    Параметр GOP формата : M=3, N=15
    Структура изображения : Frame
    Продолжительность : 16 м.
    Битрейт : 7500 Кбит/сек
    Ширина : 720 пикселей
    Высота : 576 пикселей
    Соотношение сторон : 16: 9
    Частота кадров : 25, 000 кадров/сек
    Стандарт вещания : PAL
    Цветовое пространство : YUV
    Субдискретизация насыщенности : 4: 2: 0
    Битовая глубина : 8 бит
    Тип развёртки : Чересстрочная
    Порядок развёртки : Верхнее поле первое
    Метод сжатия : С потерями
    Бит/(Пиксели*Кадры) : 0.723
    Временной код первого кадра : 01: 00: 00: 00
    Оригинал временного кода : Group of pictures t_head
    GOP, открыто/закрыто : Открыто
    GOP, открыто/закрыто на первом кадре : Закрыто
    Размер потока : 876 Мбайт (86%)
    Аудио #1
    Идентификатор : 189 (0xBD)-128 (0x80)
    Формат : AC-3
    Формат/Информация : Audio Coding 3
    Расширение режима : CM (complete main)
    Параметр Endianness формата : Big
    Режим смешивания : DVD-Video
    Продолжительность : 16 м.
    Вид битрейта : Постоянный
    Битрейт : 448 Кбит/сек
    Каналы : 6 каналов
    Расположение каналов : Front: L C R, Side: L R, LFE
    Частота : 48, 0 КГц
    Метод сжатия : С потерями
    Размер потока : 52, 5 Мбайт (5%)
    Аудио #2
    Идентификатор : 189 (0xBD)-129 (0x81)
    Формат : AC-3
    Формат/Информация : Audio Coding 3
    Расширение режима : CM (complete main)
    Параметр Endianness формата : Big
    Режим смешивания : DVD-Video
    Продолжительность : 16 м.
    Вид битрейта : Постоянный
    Битрейт : 192 Кбит/сек
    Каналы : 2 канала
    Расположение каналов : Front: L R
    Частота : 48, 0 КГц
    Метод сжатия : С потерями
    Размер потока : 22, 5 Мбайт (2%)
    Аудио #3
    Идентификатор : 189 (0xBD)-130 (0x82)
    Формат : AC-3
    Формат/Информация : Audio Coding 3
    Расширение режима : CM (complete main)
    Параметр Endianness формата : Big
    Режим смешивания : DVD-Video
    Продолжительность : 16 м.
    Вид битрейта : Постоянный
    Битрейт : 448 Кбит/сек
    Каналы : 6 каналов
    Расположение каналов : Front: L C R, Side: L R, LFE
    Частота : 48, 0 КГц
    Метод сжатия : С потерями
    Размер потока : 52, 5 Мбайт (5%)
    Текст #1
    Идентификатор : 189 (0xBD)-32 (0x20)
    Формат : RLE
    Формат/Информация : Run-length encoding
    Режим смешивания : DVD-Video
    Текст #2
    Идентификатор : 189 (0xBD)-33 (0x21)
    Формат : RLE
    Формат/Информация : Run-length encoding
    Режим смешивания : DVD-Video
    Меню
    Скриншоты


    Залил: carisha

    Онлайн видео Долгий поцелуй на ночь


    Размер скачиваемого торрента: 7.07 GB (7596134400 Bytes)

    Долгий поцелуй на ночь/The Long Kiss Goodnight (1996) DVD9 | P
    загрузка...
    Рейтинг →
     (голосов: 1, оценка 5/5, голосовать можно 1 раз )

    Другие торренты по теме:

  • Долгий поцелуй на ночь / The Long Kiss Goodnight (1996) BDRip-AVC
  • Долгий поцелуй на ночь / The Long Kiss Goodnight (1996) BDRip 1080p скачать через торрент бесплатно


    • Комментарии (0):

      Информация

      Информация

        Посетители, находящиеся в группе Гости, не могут оставлять комментарии в данной новости.

        ↓ Меню



        ↓ Опрос

        А Вы добавили сайт в закладки?
        Да
        Не


        Top 10 за месяц (Фильмы)