.
Авторизация | Регистрация
Хочешь лучшие торренты? Добавь свой email!
Добавить
» » Подводная лодка / Das Boot (1981) BDRip 720p от HQ-ViDEO | Режиссерская версия | P скачать торрент бесплатно




    Подводная лодка / Das Boot (1981) BDRip 720p от HQ-ViDEO | Режиссерская версия | P скачать торрент бесплатно

    Опубликовал: Админ | Дата: 11-06-2015, 18:01 | Просмотров: 94


    Подводная лодка Режиссерская версия/Das Boot Director;s Cut (1981) BDRip 720p
    Релиз от HQ-ViDEO

    Детально о кино
    Русское название: Подводная лодка Режиссерская версия
    Русское название в мировом прокате: Das Boot Director;s Cut
    Создали в: 1981
    Категория жанра: драма, приключения, военный
    Главный режиссер: Вольфганг Петерсен /Wolfgang Petersen/

    Актеры
    Юрген Прохнов /Jurgen Prochnow/, Херберт Грёнемайер /Herbert Gronemeyer/, Клаус Веннеманн /Klaus Wennemann/, Хабертус Бенгш /Hubertus Bengsch/, Отто Зандер /Otto Sander/, Гюнтер Лампрехт /Gunter Lamprecht/, Мартин Май /Martin May/, Хайнц Хёниг /Heinz Hoenig/, Уве Оксенкнехт /Uwe Ochsenknecht/...

    Сюжет фильма

    Осень 1941 года. Немецкая подводная лодка отправляется в Атлантический океан, место противостояния германского и английского флотов. Жизнь по строгому распорядку, учебные тревоги, воспоминания о семьях и любимых девушках, соленые мужские шуточки… Скоро всё это закончится. Потому что впереди — ад и никакой надежды на спасение...

    Награды и номинации:

    Оскар, 1983 год
    Номинации (6):
    - Лучший режиссер (Вольфганг Петерсен)
    - Лучший адаптированный сценарий
    - Лучшая работа оператора
    - Лучший звук
    - Лучший монтаж
    - Лучший монтаж звука
    Британская академия, 1983 год
    Номинации (1):
    - Лучший фильм на иностранном языке
    Золотой глобус, 1982 год
    Номинации (1):
    - Лучший иностранный фильм — Германия (ФРГ)

    Снималось в: Германия (ФРГ)
    Время просмотра: 03: 28: 20
    Перевод текста: Русский профессиональный, многоголосый перевод (Позитив Мультимедиа)
    Отдельно на Яндекс Диске:
    Русский профессиональный, многоголосый перевод (Супербит)
    Русский профессиональный, многоголосый перевод (Лизард/R5)
    Русский авторский, одноголосый перевод (Ю. Живов)
    Оригинальная, немецкая дорожка
    Файл
    Кодек для видео: MKV, H.264
    Качество фильма: BDRip 720p (Source: Blu-ray Disc)
    Информация о видео: 4880 kbps; 0.230 bit/pixel; 1280 x 692; 1.85: 1; 23.976 fps
    Информация о звуке #1: AC3 Dolby Digital; 448.00 kbps, 6 Ch - MVO Pozitiv
    Информация о звуке #2: AC3 Dolby Digital; 448.00 kbps, 6 Ch - MVO Superbit (отдельно/скачать с Яндекс Диск)
    Информация о звуке #3: AC3 Dolby Digital; 448.00 kbps, 6 Ch - MVO Lizard/R5 (отдельно/скачать с Яндекс Диск)
    Информация о звуке #4: AC3 Dolby Digital; 448.00 kbps, 6 Ch - AVO Zhivov (отдельно/скачать с Яндекс Диск)
    Информация о звуке #5: AC3 Dolby Digital; 448.00 kbps, 6 Ch - GER (отдельно/скачать с Яндекс Диск)
    Субтитры: Русские, Английские.
    Субтитры: Русские (полные (2 вида: Позитив, Супербит), форсированные), Английские.(отдельно)
    Размер скачиваемого торрента: 7.91 GB
    SAMPLE/скачать с Яндекс Диск
    MediaInfo

    General
    Complete name : Podvodnaya.Lodka.1981.RUS.BDRip.720p.h264.AC3.-HQ-ViDEO.mkv
    Format : Matroska
    File size : 7.91 GiB
    Duration : 3h 28mn
    Overall bit rate : 5 437 Kbps
    Movie name : Das Boot (1981)
    Encoded date : UTC 2010-11-07 08: 59: 20
    Writing application : mkvmerge v3.3.0 (;Language;) built on Mar 24 2010 14: 59: 24
    Writing library : libebml v0.8.0 + libmatroska v0.9.0
    Video
    ID : 1
    Format : AVC
    Format/Info : Advanced Video Codec
    Format profile : High@L4.1
    Format settings, CABAC : Yes
    Format settings, ReFrames : 6 frames
    Muxing mode : Container profile=Unknown@4.1
    Codec ID : V_MPEG4/ISO/AVC
    Duration : 3h 28mn
    Bit rate : 4 880 Kbps
    Width : 1 280 pixels
    Height : 692 pixels
    Display aspect ratio : 1.850
    Frame rate : 23.976 fps
    Resolution : 8 bits
    Colorimetry : 4: 2: 0
    Scan type : Progressive
    Bits/(Pixel*Frame) : 0.230
    Stream size : 7.10 GiB (90%)
    Title : Encoded by GYN
    Audio
    ID : 2
    Format : AC-3
    Format/Info : Audio Coding 3
    Codec ID : A_AC3
    Duration : 3h 28mn
    Bit rate mode : Constant
    Bit rate : 448 Kbps
    Channel(s) : 6 channels
    Channel positions : Front: L C R, Surround: L R, LFE
    Sampling rate : 48.0 KHz
    Stream size : 668 MiB (8%)
    Title : MVO Pozitiv
    Language : Russian
    Text #1
    ID : 3
    Format : UTF-8
    Codec ID : S_TEXT/UTF8
    Codec ID/Info : UTF-8 Plain Text
    Title : Pozitiv
    Language : Russian
    Text #2
    ID : 4
    Format : UTF-8
    Codec ID : S_TEXT/UTF8
    Codec ID/Info : UTF-8 Plain Text
    Language : English





    Релиз подготовил: HQ-ViDEO
    Автор рипа: GYN

    Онлайн видео Подводная лодка


    Размер скачиваемого торрента: 7.91 GB (8495006799 Bytes)

    Подводная лодка/Das Boot (1981) BDRip 720p от HQ-ViDEO | Режиссерская версия | P
    загрузка...
    Рейтинг →
     (голосов: 1, оценка 5/5, голосовать можно 1 раз )

    Другие торренты по теме:

  • Лодка / Подводная лодка / Подлодка / Das Boot (1981) BDRip от Youtracker скачать через торрент бесплатно
  • Подводная лодка / Das Boot (1981) BDRip 1080p | Directors Cut
  • OST - Подводная лодка / Das Boot (1997) MP3
  • Атомная подводная лодка / The Atomic Submarine (1960) DVDRip от GalVid
  • Атомная подводная лодка / The Atomic Submarine (1959) DVDRip-AVC от F-Torrents
  • Подводная лодка / Das Boot (1981) BDRip-AVC | Director`s Cut скачать через торрент бесплатно
  • Подводная лодка / Das Boot (1985) DVDRip-AVC | Полная версия скачать через торрент бесплатно
  • Подводная лодка [Режиссёрская версия] / Das Boot [Directors Cut]


    • Комментарии (0):

      Информация

      Информация

        Посетители, находящиеся в группе Гости, не могут оставлять комментарии в данной новости.

        ↓ Меню



        ↓ Опрос

        А Вы добавили сайт в закладки?
        Да
        Не


        Top 10 за месяц (Фильмы)