.
Авторизация | Регистрация
Хочешь лучшие торренты? Добавь свой email!
Добавить
» » S.P.L. Звезды судьбы 2 / Saat po long 2 (2015) WEBRip 1080p | Трейлер скачать торрент бесплатно




    S.P.L. Звезды судьбы 2 / Saat po long 2 (2015) WEBRip 1080p | Трейлер скачать торрент бесплатно

    Опубликовал: Админ | Дата: 11-06-2015, 15:05 | Просмотров: 204



    Создали в: 2014
    Создали в: Китай
    Категория жанра: боевик, драма, криминал
    Перевод текста: Дублированный
    Главный режиссер: Поу-Сои Чинг
    Продюсеры: Пако Вонг, Уилсон Ип, Yi-Qi Chen
    Актеры: Тони Джа, Саммо Кам-Бо Хунг, Энди Он, Джеки Ву, Саймон Ям, Луис Ку, Кен Ло, Эндрю Нг, Френсис Нг, Кики Енг
    Описание фильма:
    Крутой гонконгский полицейский по имени Кит загоняет в угол крупного гангстера, но тот поворачивает все в свою сторону — главный свидетель Кита исчез. Более того, Кита отправляют в тайскую тюрьму, снабдив фальшивым списком преступлений. Тюремный охранник Чай следит за тем, чтобы Кит не сбежал — дочь Чая страдает от редкой формы лейкемии, и только Кит может стать для нее подходящим донором. В конце концов Чай узнает, кто такой Кит на самом деле и помогает ему сбежать в обмен на согласие стать донором для его дочери. Вместе Кит и Чай бросят вызов гангстеру и его приспешникам.
    Дата мировой премьеры: 18 июня 2015
    Дата российской премьеры: 18 июня 2015

    Время просмотра: 00: 01: 18
    Качество фильма видео: WEBRip
    Информация о видеокодек: MPEG-4 AVC/H.264
    Битрейт видео: 2112 Кбит/сек
    Размер скачиваемого торрента кадра: 1920x1080
    Информация о звукекодек: AAC
    Битрейт аудио: 126 Кбит/сек
    MediaInfo:

    Общее
    Полное имя : S.P.L. Звезды судьбы 2 Русский Трейлер (2015).mp4
    Формат : MPEG-4
    Профиль формата : Base Media
    Идентификатор кодека : isom
    Размер файла : 21, 1 Мбайт
    Продолжительность : 1 м. 18 с.
    Общий поток : 2242 Кбит/сек
    Программа кодирования : Lavf56.19.100
    Видео
    Идентификатор : 1
    Формат : AVC
    Формат/Информация : Advanced Video Codec
    Профиль формата : High@L4
    Параметр CABAC формата : Да
    Параметр ReFrames формата : 3 кадра
    Идентификатор кодека : avc1
    Идентификатор кодека/Информация : Advanced Video Coding
    Продолжительность : 1 м. 18 с.
    Битрейт : 2112 Кбит/сек
    Ширина : 1920 пикселей
    Высота : 1080 пикселей
    Соотношение сторон : 16: 9
    Режим частоты кадров : Постоянный
    Частота кадров : 24, 000 кадра/сек
    Цветовое пространство : YUV
    Субдискретизация насыщенности : 4: 2: 0
    Битовая глубина : 8 бит
    Тип развёртки : Прогрессивная
    Бит/(Пиксели*Кадры) : 0.042
    Размер потока : 19, 8 Мбайт (94%)
    Аудио
    Идентификатор : 2
    Формат : AAC
    Формат/Информация : Advanced Audio Codec
    Профиль формата : LC
    Идентификатор кодека : 40
    Продолжительность : 1 м. 18 с.
    Вид битрейта : Постоянный
    Битрейт : 126 Кбит/сек
    Каналы : 2 канала
    Расположение каналов : Front: L R
    Частота : 44, 1 КГц
    Метод сжатия : С потерями
    Размер потока : 1, 18 Мбайт (6%)

    Скриншоты



    Скриншоты



    Залил: Jokerzv

    Онлайн видео S.P.L. Звезды судьбы 2


    Размер скачиваемого торрента: 21.07 MB (22095900 Bytes)

    S.P.L. Звезды судьбы 2/Saat po long 2 (2015) WEBRip 1080p | Трейлер
    загрузка...
    Рейтинг →
     (голосов: 1, оценка 5/5, голосовать можно 1 раз )

    Другие торренты по теме:

  • S.P.L. Звезды судьбы 2 / SPL 2: A Time for Consequences (2015) BDRip-AVC от R.G.Resident | A, L2


    • Комментарии (0):

      Информация

      Информация

        Посетители, находящиеся в группе Гости, не могут оставлять комментарии в данной новости.

        ↓ Меню



        ↓ Опрос

        А Вы добавили сайт в закладки?
        Да
        Не


        Top 10 за месяц (Фильмы)