.
Авторизация | Регистрация
Хочешь лучшие торренты? Добавь свой email!
Добавить
» » Марсианин / The Martian (2015) WEBRip 1080p | Трейлер скачать торрент бесплатно




    Марсианин / The Martian (2015) WEBRip 1080p | Трейлер скачать торрент бесплатно

    Опубликовал: Админ | Дата: 11-06-2015, 15:05 | Просмотров: 607



    Создали в: 2014
    Создали в: США
    Категория жанра: фантастика, приключения
    Перевод текста: Дублированный
    Главный режиссер: Ридли Скотт
    Продюсеры: Марк Хаффам, Саймон Кинберг, Майкл Шефер
    Актеры: Мэтт Дэймон, Кейт Мара, Джессика Честейн, Кристен Уиг, Маккензи Дэвис, Шон Бин, Себастьян Стэн, Дональд Гловер, Джефф Дэниелс, Майкл Пенья
    Описание фильма:
    Марсианская миссия Арес-3 в процессе работы была вынуждена экстренно покинуть планету из-за надвигающейся песчаной бури. Инженер и биолог Марк Уотни получил повреждение скафандра во время песчаной бури. Сотрудники миссии, посчитав его погибшим, эвакуировались с планеты, оставив Марка одного.
    Очнувшись, Уотни обнаруживает, что связь с Землёй отсутствует, но при этом полностью функционирует жилой модуль. Главный герой начинает искать способ продержаться на имеющихся запасах еды, витаминов, воды и воздуха ещё 4 года до прилёта следующей миссии Арес-4.
    Дата мировой премьеры: 25 ноября 2015
    Дата российской премьеры: 3 декабря 2015

    Время просмотра: 00: 03: 34
    Качество фильма видео: WEBRip
    Информация о видеокодек: MPEG-4 AVC/H.264
    Битрейт видео: 2531 Кбит/сек
    Размер скачиваемого торрента кадра: 1920x1080
    Информация о звукекодек: AAC
    Битрейт аудио: 126 Кбит/сек
    MediaInfo:

    Общее
    Полное имя : Марсианин Русский Трейлер (2015).mp4
    Формат : MPEG-4
    Профиль формата : Base Media
    Идентификатор кодека : isom
    Размер файла : 68, 1 Мбайт
    Продолжительность : 3 м. 34 с.
    Общий поток : 2662 Кбит/сек
    Программа кодирования : Lavf56.19.100
    Видео
    Идентификатор : 1
    Формат : AVC
    Формат/Информация : Advanced Video Codec
    Профиль формата : High@L4
    Параметр CABAC формата : Да
    Параметр ReFrames формата : 2 кадра
    Идентификатор кодека : avc1
    Идентификатор кодека/Информация : Advanced Video Coding
    Продолжительность : 3 м. 34 с.
    Битрейт : 2531 Кбит/сек
    Ширина : 1920 пикселей
    Высота : 1080 пикселей
    Соотношение сторон : 16: 9
    Режим частоты кадров : Переменный
    Частота кадров : 23, 976 кадра/сек
    Минимальная частота кадров : 23, 974 кадра/сек
    Максимальная частота кадров : 23, 981 кадра/сек
    Цветовое пространство : YUV
    Субдискретизация насыщенности : 4: 2: 0
    Битовая глубина : 8 бит
    Тип развёртки : Прогрессивная
    Бит/(Пиксели*Кадры) : 0.051
    Размер потока : 64, 7 Мбайт (95%)
    Аудио
    Идентификатор : 2
    Формат : AAC
    Формат/Информация : Advanced Audio Codec
    Профиль формата : LC
    Идентификатор кодека : 40
    Продолжительность : 3 м. 34 с.
    Вид битрейта : Постоянный
    Битрейт : 126 Кбит/сек
    Каналы : 2 канала
    Расположение каналов : Front: L R
    Частота : 44, 1 КГц
    Метод сжатия : С потерями
    Размер потока : 3, 21 Мбайт (5%)

    Скриншоты



    Скриншоты



    Залил: Jokerzv

    Онлайн видео Марсианин


    Размер скачиваемого торрента: 68.12 MB (71429744 Bytes)

    Марсианин/The Martian (2015) WEBRip 1080p | Трейлер
    загрузка...
    Рейтинг →
     (голосов: 1, оценка 3/5, голосовать можно 1 раз )

    Другие торренты по теме:

  • Мой любимый марсианин / My Favorite Martian (1999) WEB-DLRip
  • Мой любимый марсианин / My Favorite Martian (1999) WEB-DL (720p) от HDClub | D
  • Энди Уир - Марсианин (2012) (2015) MP3
  • Марсианин / The Martian (2015) DCPRip | 4K | Трейлер
  • Марсианин (2015) HDRip
  • Марсианин / The Martian (2015) WEBRip | Звук с TS
  • Марсианин / The Martian (2015) WEB-DL 1080р | Чистый звук
  • Марсианин / The Martian (2015) WEB-DLRip от Scarabey | Чистый звук


    • Комментарии (0):

      Информация

      Информация

        Посетители, находящиеся в группе Гости, не могут оставлять комментарии в данной новости.

        ↓ Меню



        ↓ Опрос

        А Вы добавили сайт в закладки?
        Да
        Не


        Top 10 за месяц (Фильмы)