.
Авторизация | Регистрация
Хочешь лучшие торренты? Добавь свой email!
Добавить
» » Повесть о Неистовом (1947) SATRip от New-Team скачать торрент бесплатно




    Повесть о Неистовом (1947) SATRip от New-Team скачать торрент бесплатно

    Опубликовал: Админ | Дата: 11-06-2015, 00:03 | Просмотров: 107



    Снималось в: СССР
    Создали в: Мосфильм
    Категория жанра: драма, военный
    Создали в: 1947
    Время просмотра: 01: 29: 29
    Перевод текста: Не требуется
    Субтитры подготовлены: нет
    Оригинальная аудиодорожка: русский
    Главный режиссер: Борис Бабочкин

    Актеры

    Борис Бабочкин, Виктор Миронов, Алексей Алексеев, Чеслав Сушкевич, Дмитрий Дубов, Виктор Проклов, Иван Кузнецов, О. Мерцедин, Александр Баранов, Александр Гречаный, Пётр Савин, Михаил Глузский, Иосиф Ваньков, М. Атаев, Андрей Карасев, Виталий Клиш, Яков Трайнин, В. Сударев, Иван Переверзев, Леонид Кмит, Александр Смирнов, Валериан Казанский, В. Бондарева, Галина Фролова, Е. Феоктистова, Эмилия Кравченко, Михаил Державин (ст.), Боря Бовыкин, Лев Потёмкин...
    Описание:
    Один из кораблей Северного флота, миноносец Неистовый, получает задание провести через зону действия немецких подводных лодок в Баренцовом море танкер с горючим, которое ждут на северных авиабазах.



    Источник: DVB
    Качество фильма видео: SATRip
    Тип видео видео: AVI
    Информация о видео: 640x480 (4: 3), 25 fps, XviD ~ 1027 kbps avg, 0.134 bit/pixel
    Информация о звуке: 48 kHz, MP3 2.0, 128 kbps
    Раздача от:
    MediaInfo

    Общее
    Полное имя : Povest.o.Neistovom.1947.SATRip-745_New-team_by_AVP_Studio.avi
    Формат : AVI
    Формат/Информация : Audio Video Interleave
    Размер файла : 745 Мбайт
    Продолжительность : 1 ч. 29 м.
    Общий поток : 1165 Кбит/сек
    Программа кодирования : VirtualDubModRus 1.5.10.2 (build 2542/release)
    Библиотека кодирования : VirtualDubMod build 2542/release
    Видео
    Идентификатор : 0
    Формат : MPEG-4 Visual
    Профиль формата : Advanced Simple@L5
    Параметр BVOP формата : 1
    Параметр QPel формата : Нет
    Параметр GMC формата : Без точки перехода
    Параметр матрицы формата : Выборочная
    Идентификатор кодека : XVID
    Идентификатор кодека/Подсказка : XviD
    Продолжительность : 1 ч. 29 м.
    Битрейт : 1027 Кбит/сек
    Ширина : 640 пикселей
    Высота : 480 пикселей
    Соотношение сторон : 4: 3
    Частота кадров : 25, 000 кадров/сек
    Цветовое пространство : YUV
    Субдискретизация насыщенности : 4: 2: 0
    Битовая глубина : 8 бит
    Тип развёртки : Прогрессивная
    Метод сжатия : С потерями
    Бит/(Пиксели*Кадры) : 0.134
    Размер потока : 657 Мбайт (88%)
    Библиотека кодирования : XviD 73
    Аудио
    Идентификатор : 1
    Формат : MPEG Audio
    Версия формата : Version 1
    Профиль формата : Layer 3
    Идентификатор кодека : 55
    Идентификатор кодека/Подсказка : MP3
    Продолжительность : 1 ч. 29 м.
    Вид битрейта : Постоянный
    Битрейт : 128 Кбит/сек
    Каналы : 2 канала
    Частота : 48, 0 КГц
    Метод сжатия : С потерями
    Размер потока : 81, 9 Мбайт (11%)
    Выравнивание : Соединение по промежуткам
    Продолжительность промежутка : 40 мс. (1, 00 видеокадр)
    Время предзагрузки промежутка : 504 мс.
    Библиотека кодирования : LAME3.99r
    Залил: AVPStudio
    Размер скачиваемого торрента: 745.32 MB (781527040 Bytes)


    Повесть о Неистовом (1947) SATRip от New-Team
    загрузка...
    Рейтинг →
     (голосов: 1, оценка 3/5, голосовать можно 1 раз )

    Другие торренты по теме:

  • Повесть о клане Ягю: Искусство ниндзя / Yagyu bugeicho - Ninjitsu (1957-1958) DVDRip
  • Марриет Фредерик - Корабль-призрак, или повесть о Летучем Голландце (2011) МРЗ
  • Зощенко Михаил - Повесть о разуме (2011) MP3
  • Юкинага Монах - Повесть о доме Тайра () FB2, DOC, RTF, TXT
  • Леонид Соловьев - Рассказы. Повесть о Ходже Насреддине (1939-1958) FB2
  • Мурасаки Сикибу - Повесть о Гэндзи (Гэндзи-моногатари) () FB2, RTF, TXT
  • Леонид Соловьев - Повесть о Ходже Насреддине (2010) MP3
  • Повесть о лунной принцессе / Shingetsutan Tsukihime (2003) DVDRip | L2


    • Комментарии (0):

      Информация

      Информация

        Посетители, находящиеся в группе Гости, не могут оставлять комментарии в данной новости.

        ↓ Меню



        ↓ Опрос

        А Вы добавили сайт в закладки?
        Да
        Не


        Top 10 за месяц (Фильмы)