.
Авторизация | Регистрация
Хочешь лучшие торренты? Добавь свой email!
Добавить
» » Страховщик / Automata (2014) BDRip 720p от KinoGadget | iPad скачать торрент бесплатно




    Страховщик / Automata (2014) BDRip 720p от KinoGadget | iPad скачать торрент бесплатно

    Опубликовал: Админ | Дата: 9-06-2015, 00:03 | Просмотров: 60


    Создали в: 2014
    Снималось в: Испания, Болгария
    Категория жанра: фантастика, триллер
    Время просмотра: 01: 49: 54
    Перевод текста: Дублированный
    Главный режиссер: Габе Ибаньес

    Актеры
    Антонио Бандерас, Биргитта Йорт Сёренсен, Мелани Гриффит, Дилан МакДермотт, Роберт Форстер, Тим МакИннерни, Энди Найман, Дэвид Райалл, Эндрю Тирнан, Криста Кэмпбелл
    Описание: Главным героем фильма — страховой агент компании по изготовлению роботов Жак Вокан, который обнаруживает, что изобретаемые роботы создаются не для эксплуатации, а для истребления.

    Информация о видео кодек: MPEG-4 AVC
    Качество фильма: BDRip 720p
    Параметры Видео: 1280x542, 25.000 fps; ~2 057 kbps avg
    Параметры Звука: 44.1 KHz, AAC, ~150.00 kbps avg, 2ch
    Тип видео: mp4
    Автор рипа:
    Релиз-группа:

    Meta Tags


    MI
    General
    Complete name : E: Straxovshhik.2014.D.BDRip.720p_KinoGadget.mp4
    Format : MPEG-4
    Format profile : Base Media
    Codec ID : isom
    File size : 1.63 GiB
    Duration : 1h 45mn
    Overall bit rate mode : Variable
    Overall bit rate : 2 214 Kbps
    Movie name : Страховщик
    Performer : Габе Ибаньес
    Genre : Action, Thriller
    ContentType : Short Film
    Recorded date : 2014
    Encoded date : UTC 2015-06-08 15: 49: 04
    Tagged date : UTC 2015-06-08 15: 54: 23
    Cover : Yes
    ContentRating : mpaa|R|400|
    LongDeion : 2044 год. После природной катастрофы население Земли уменьшилось до 21 миллиона человек. Большую часть суши теперь занимает радиоактивная пустыня, а выжившие скрываются в городах за высокими стенами и искусственными облаками, которые созданы с помощью роботов — Пилигримов. Компания ROC изготавливает роботов, которые поддерживают существование оставшихся городов. Роботы снабжены защитным механизмом, который не позволяет им наносить вред людям. После одного инцидента страховщик Жак Вокан начинает подозревать, что роботы научились изменять себя.
    HDVideo : Yes
    Video
    ID : 1
    Format : AVC
    Format/Info : Advanced Video Codec
    Format profile : High@L4.1
    Format settings, CABAC : Yes
    Format settings, ReFrames : 11 frames
    Codec ID : avc1
    Codec ID/Info : Advanced Video Coding
    Duration : 1h 45mn
    Bit rate : 2 057 Kbps
    Maximum bit rate : 9 572 Kbps
    Width : 1 280 pixels
    Height : 542 pixels
    Display aspect ratio : 2.35: 1
    Frame rate mode : Constant
    Frame rate : 25.000 fps
    Color space : YUV
    Chroma subsampling : 4: 2: 0
    Bit depth : 8 bits
    Scan type : Progressive
    Bits/(Pixel*Frame) : 0.119
    Stream size : 1.51 GiB (93%)
    Writing library : x264 core 146 r2538 121396c
    Encoding settings : cabac=1/ref=11/deblock=1: -1: -1/analyse=0x3: 0x133/me=umh/subme=9/psy=1/psy_rd=1.00: 0.00/mixed_ref=1/me_range=24/chroma_me=1/trellis=2/8x8dct=1/cqm=0/deadzone=21, 11/fast_pskip=1/chroma_qp_offset=-2/threads=3/lookahead_threads=1/sliced_threads=0/nr=0/decimate=1/interlaced=0/bluray_compat=0/constrained_intra=0/bframes=4/b_pyramid=2/b_adapt=2/b_bias=0/direct=3/weightb=1/open_gop=0/weightp=2/keyint=250/keyint_min=25/scenecut=40/intra_refresh=0/rc_lookahead=60/rc=crf/mbtree=1/crf=21.0/qcomp=0.60/qpmin=0/qpmax=69/qpstep=4/ip_ratio=1.40/aq=1: 1.50
    Encoded date : UTC 2015-06-08 09: 46: 11
    Tagged date : UTC 2015-06-08 15: 50: 00
    Audio
    ID : 2
    Format : AAC
    Format/Info : Advanced Audio Codec
    Format profile : LC
    Codec ID : 40
    Duration : 1h 45mn
    Bit rate mode : Variable
    Bit rate : 150 Kbps
    Maximum bit rate : 225 Kbps
    Channel count : 2 channels
    Channel positions : Front: L R
    Sampling rate : 44.1 KHz
    Compression mode : Lossy
    Stream size : 113 MiB (7%)
    Language : Russian
    Encoded date : UTC 2015-06-08 15: 49: 43
    Tagged date : UTC 2015-06-08 15: 50: 00

    Скриншоты


    Залил: KinoGadget

    Онлайн видео Страховщик


    Размер скачиваемого торрента: 1.63 GB (1750292460 Bytes)

    Страховщик/Automata (2014) BDRip 720p от KinoGadget | iPad
    загрузка...
    Рейтинг →
     (голосов: 1, оценка 4/5, голосовать можно 1 раз )

    Другие торренты по теме:

  • Страховщик (2014)
  • Страховщик / Automata скачать через торрент бесплатно
  • Страховщик / Autmata (2014) WEB-DLRip | L1
  • Страховщик / Autmata (2014) HDRip | Чистый звук
  • Страховщик / Autmata (2014) HDRip | Чистый звук
  • Страховщик / Automata (2014) BDRip 1080p | Чистый звук скачать через торрент бесплатно
  • Страховщик / Automata (2014) BDRip-AVC | Чистый звук
  • Страховщик / Automata (2014) BDRip 720p от Leonardo and Scarabey | Чистый звук


    • Комментарии (0):

      Информация

      Информация

        Посетители, находящиеся в группе Гости, не могут оставлять комментарии в данной новости.

        ↓ Меню



        ↓ Опрос

        А Вы добавили сайт в закладки?
        Да
        Не


        Top 10 за месяц (Фильмы)