.
Авторизация | Регистрация
Хочешь лучшие торренты? Добавь свой email!
Добавить
» » Апокалипсис сегодня / Apocalypse Now (1979) BDRip 720p от HQ-ViDEO | P, A | Redux Version скачать торрент бесплатно




    Апокалипсис сегодня / Apocalypse Now (1979) BDRip 720p от HQ-ViDEO | P, A | Redux Version скачать торрент бесплатно

    Опубликовал: Админ | Дата: 8-06-2015, 15:03 | Просмотров: 91

    Апокалипсис сегодня/Apocalypse Now Redux Version (1979) BDRip 720p
    Релиз от HQ-ViDEO

    Детально о кино
    Русское название: Апокалипсис сегодня
    Русское название в мировом прокате: Apocalypse Now Redux Version
    Создали в: 1979
    Категория жанра: драма, военный
    Главный режиссер: Френсис Форд Коппола /Francis Ford Coppola/

    Актеры
    Мартин Шин /Martin Sheen/, Марлон Брандо /Marlon Brando/, Роберт Дювалл /Robert Duvall/ , Фредерик Форрест /Frederic Forrest/, Сэм Боттомс /Sam Bottoms/, Лоуренс Фишбёрн /Laurence Fishburne/ , Альберт Холл /Albert Hall/, Харрисон Форд /Harrison Ford/, Деннис Хоппер /Dennis Hopper/ , Г.Д. Спрэдлин /G.D. Spradlin/, Френсис Форд Коппола /Francis Ford Coppola/ ...

    Сюжет фильма

    Во время войны во Вьетнаме спецагент отправляется вверх по реке в Камбоджу с приказом найти и убить полусумасшедшего полковника, создавшего в отдаленном районе нечто вроде собственного королевства насилия. По пути мы видим почти сюрреалистический мир ужасов войны.

    Цитата Кто-тописал:
    Redux Versionили Новая режиссёрская версия- это пермонтированная в 2001 году версия фильма.
    Материалы, не вошедшие в оригинальную версию фильма

    - Смешной эпизод, в котором команда катера, на котором плывёт Уиллард, крадёт у полковника Килгора доску для сёрфинга.
    - После сцены с танцами девушек из Плейбоя следует эпизод, когда Уиллард со своей командой встречают этих же девушек и их сопровождающих, у которых в вертолёте закончилось топливо, и они ждут, что кто-нибудь их подберёт. Уиллард договаривается об обмене двух бочек топлива на два часа с девушками для своих солдат. Одна из девушек рассказывает историю своей жизни и говорит о своём восприятии позора и сексуальной эксплуатации.
    - Вскоре после смерти мистера Клина команда наталкивается на каучуковую плантацию, которую защищают французы, колонизировавшие эти места много лет назад. Они помогают похоронить Клина и затем приглашают солдат на обед, который длится долго и сопровождается разнообразными разговорами о войне, её причинах и методах её ведения. Потом Уиллард остаётся вдвоём с французской вдовой, они курят опиум и проводят вместе ночь.
    - В селении Курца последний, окружённый вьетнамскими детьми, читает Уилларду статью из журнала Тайм о вьетнамской войне. Это единственная сцена, в которой Курц появляется при дневном свете.

    Снималось в: США
    Время просмотра: 03: 16: 09
    Перевод текста: Русский профессиональный, многоголосый (Киномания)
    Отдельно на Яндекс Диске:
    Русский профессиональный, многоголосый (Позитив) (отдельно)
    Русский профессиональный, многоголосый (Союз-Видео) (отдельно)
    Авторский, одноголосый (Дмитрий Гоблин Пучков) (отдельно)
    Оригинальная, английская дорожка (отдельно)
    Файл
    Кодек для видео: MKV, H.264
    Качество фильма: BDRip 720p (Source: Blu-ray Disc)
    Информация о видео: 5212 kbps; 0.312 bit/pixel; 1280 x 544; 2.35: 1; 23.976 fps
    Информация о звуке #1: AC3 Dolby Digital; 448.00 kbps, 6 Ch - MVO Kinomaniya
    Информация о звуке #2: AC3 Dolby Digital; 384.00 kbps, 6 Ch - MVO Pozitiv (отдельно/скачать с Яндекс Диск)
    Информация о звуке #3: AC3 Dolby Digital; 384.00 kbps, 6 Ch - MVO Soyuz (отдельно/скачать с Яндекс Диск)
    Информация о звуке #4: AC3 Dolby Digital; 448.00 kbps, 6 Ch - AVO Goblin (отдельно/скачать с Яндекс Диск)
    Информация о звуке #5: AC3 Dolby Digital; 448.00 kbps, 6 Ch - ENG (отдельно/скачать с Яндекс Диск)
    Субтитры: Русские (Гоблин), Английские.
    Субтитры: Русские, Английские (полные, SDH).(отдельно)
    Размер скачиваемого торрента: 7.91 GB
    SAMPLE/скачать с Яндекс Диск
    MediaInfo

    General
    Complete name : Apokalipsis.Segodnya.1979.RUS.BDRip.720p.h264.AC3.-HQ-ViDEO.mkv
    Format : Matroska
    File size : 7.91 GiB
    Duration : 3h 16mn
    Overall bit rate : 5 775 Kbps
    Movie name : Apocalypse Now (1979)
    Encoded date : UTC 2011-01-14 08: 55: 32
    Writing application : mkvmerge v3.3.0 (;Language;) built on Mar 24 2010 14: 59: 24
    Writing library : libebml v0.8.0 + libmatroska v0.9.0
    Video
    ID : 1
    Format : AVC
    Format/Info : Advanced Video Codec
    Format profile : High@L4.1
    Format settings, CABAC : Yes
    Format settings, ReFrames : 6 frames
    Muxing mode : Container profile=Unknown@4.1
    Codec ID : V_MPEG4/ISO/AVC
    Duration : 3h 15mn
    Bit rate : 5 212 Kbps
    Width : 1 280 pixels
    Height : 544 pixels
    Display aspect ratio : 2.35: 1
    Frame rate : 23.976 fps
    Resolution : 8 bits
    Colorimetry : 4: 2: 0
    Scan type : Progressive
    Bits/(Pixel*Frame) : 0.312
    Stream size : 7.13 GiB (90%)
    Title : Encoded by GYN
    Audio
    ID : 2
    Format : AC-3
    Format/Info : Audio Coding 3
    Codec ID : A_AC3
    Duration : 3h 16mn
    Bit rate mode : Constant
    Bit rate : 448 Kbps
    Channel(s) : 6 channels
    Channel positions : Front: L C R, Surround: L R, LFE
    Sampling rate : 48.0 KHz
    Stream size : 629 MiB (8%)
    Title : MVO
    Language : Russian
    Text #1
    ID : 3
    Format : UTF-8
    Codec ID : S_TEXT/UTF8
    Codec ID/Info : UTF-8 Plain Text
    Title : Goblin
    Language : Russian
    Text #2
    ID : 4
    Format : UTF-8
    Codec ID : S_TEXT/UTF8
    Codec ID/Info : UTF-8 Plain Text
    Language : English





    Релиз подготовил: HQ-ViDEO
    Автор рипа: GYN

    Онлайн видео Апокалипсис сегодня


    Размер скачиваемого торрента: 7.91 GB (8495730037 Bytes)

    Апокалипсис сегодня/Apocalypse Now (1979) BDRip 720p от HQ-ViDEO | P, A | Redux Version
    загрузка...
    Рейтинг →
     (голосов: 1, оценка 5/5, голосовать можно 1 раз )

    Другие торренты по теме:

  • Ёж - Апокалипсис сегодня Автономно Плохой Пример (2012 - 2013) MP3
  • Апокалипсис сегодня / Apocalypse Now (1979) BDRip 720p от NoLimits-Team | Redux version
  • Апокалипсис сегодня / Apocalypse Now (1979) HDRip | Redux version скачать через торрент бесплатно
  • Апокалипсис сегодня / Apocalypse Now (1979) BDRip от MediaClub | КПК | Redux version
  • Апокалипсис сегодня (Режиссерская версия) / Apocalypse Now (Redux version) / 1979 / АП (Пучков) / HDRip


    • Комментарии (0):

      Информация

      Информация

        Посетители, находящиеся в группе Гости, не могут оставлять комментарии в данной новости.

        ↓ Меню



        ↓ Опрос

        А Вы добавили сайт в закладки?
        Да
        Не


        Top 10 за месяц (Фильмы)