.
Авторизация | Регистрация
Хочешь лучшие торренты? Добавь свой email!
Добавить
» » Проклятие 2 / The Grudge 2 (2006) DVD9 | D скачать торрент бесплатно




    Проклятие 2 / The Grudge 2 (2006) DVD9 | D скачать торрент бесплатно

    Опубликовал: Админ | Дата: 8-06-2015, 15:03 | Просмотров: 100


    Детально о кино
    Русское название: Проклятие 2
    Русское название в мировом прокате: The Grudge 2
    Создали в: 2006
    Категория жанра: ужасы, триллер
    Главный режиссер: Такаси Симидзу

    Актеры
    Сара Мишель Геллар, Эмбер Тэмблин, Ариэль Кеббел, Дженнифер Билз, Эдисон Чен, Сара Ремер, Тереза Палмер, Такако Фудзи, Мэттью Найт, Мисако Уно

    Сюжет фильма

    Таинственное и беспощадное проклятие настигает новую жертву — сестру девушки, все-таки сумевшей спастись от призрака заброшенного токийского дома. Теперь многие умрут страшной смертью. Вопрос только в том, насколько длинной станет цепочка жертв, и есть ли сила, способная остановить это проклятие…

    Снималось в: США, Япония
    Киностудия: Columbia Pictures Corporation, Ghost House Pictures, Vertigo Entertainment
    Время просмотра: 98мин./01: 38
    Перевод текста: полное дублирование
    Файл
    Кодек для видео: MPEG2
    Качество фильма: DVD9 CP-Digital
    Информация о видео: PAL 16: 9 (720x576@1024x576) VBR 5251 Kbps, 25.000 fps
    Информация о звуке 1: Dolby AC3, 6 ch, 48.0 KHz, 448 Кbps (русский, английский)
    Информация о звуке 2: DTS 6 ch, 48.0 KHz, 1536 Kbps (русский)
    Субтитры: русские, украинские
    MediaInfo
    Общее
    Полное имя : D: Prokljatie.II.2006.DVD9VTS_06_1.VOB
    Формат : MPEG-PS
    Размер файла : 1024 Мбайт
    Продолжительность : 18 м.
    Режим общего битрейта : Переменный
    Общий поток : 7813 Кбит/сек
    Видео
    Идентификатор : 224 (0xE0)
    Формат : MPEG Video
    Версия формата : Version 2
    Профиль формата : Main@Main
    Параметр BVOP формата : Да
    Параметр матрицы формата : Выборочная
    Параметр GOP формата : M=3, N=15
    Структура изображения : Frame
    Продолжительность : 18 м.
    Вид битрейта : Переменный
    Битрейт : 5251 Кбит/сек
    Максимальный битрейт : 8000 Кбит/сек
    Ширина : 720 пикселей
    Высота : 576 пикселей
    Соотношение сторон : 16: 9
    Частота кадров : 25, 000 кадров/сек
    Стандарт вещания : PAL
    Цветовое пространство : YUV
    Субдискретизация насыщенности : 4: 2: 0
    Битовая глубина : 8 бит
    Тип развёртки : Чересстрочная
    Порядок развёртки : Верхнее поле первое
    Метод сжатия : С потерями
    Бит/(Пиксели*Кадры) : 0.506
    Временной код первого кадра : 01: 00: 04: 00
    Оригинал временного кода : Group of pictures t_head
    GOP, открыто/закрыто : Закрыто
    Размер потока : 688 Мбайт (67%)
    Аудио #1
    Идентификатор : 189 (0xBD)-128 (0x80)
    Формат : AC-3
    Формат/Информация : Audio Coding 3
    Расширение режима : CM (complete main)
    Параметр Endianness формата : Big
    Режим смешивания : DVD-Video
    Продолжительность : 18 м.
    Вид битрейта : Постоянный
    Битрейт : 448 Кбит/сек
    Каналы : 6 каналов
    Расположение каналов : Front: L C R, Side: L R, LFE
    Частота : 48, 0 КГц
    Метод сжатия : С потерями
    Размер потока : 58, 7 Мбайт (6%)
    Аудио #2
    Идентификатор : 189 (0xBD)-129 (0x81)
    Формат : AC-3
    Формат/Информация : Audio Coding 3
    Расширение режима : CM (complete main)
    Параметр Endianness формата : Big
    Режим смешивания : DVD-Video
    Продолжительность : 18 м.
    Вид битрейта : Постоянный
    Битрейт : 448 Кбит/сек
    Каналы : 6 каналов
    Расположение каналов : Front: L C R, Side: L R, LFE
    Частота : 48, 0 КГц
    Метод сжатия : С потерями
    Размер потока : 58, 7 Мбайт (6%)
    Аудио #3
    Идентификатор : 189 (0xBD)-138 (0x8A)
    Формат : DTS
    Формат/Информация : Digital Theater Systems
    Режим : 16
    Параметр Endianness формата : Big
    Режим смешивания : DVD-Video
    Продолжительность : 18 м.
    Вид битрейта : Постоянный
    Битрейт : 1510 Кбит/сек
    Каналы : 6 каналов
    Расположение каналов : Front: L C R, Side: L R, LFE
    Частота : 48, 0 КГц
    Битовая глубина : 24 бит
    Метод сжатия : С потерями
    Размер потока : 198 Мбайт (19%)
    Текст #1
    Идентификатор : 189 (0xBD)-32 (0x20)
    Формат : RLE
    Формат/Информация : Run-length encoding
    Режим смешивания : DVD-Video
    Текст #2
    Идентификатор : 189 (0xBD)-33 (0x21)
    Формат : RLE
    Формат/Информация : Run-length encoding
    Режим смешивания : DVD-Video
    Меню
    Скриншоты


    Залил: carisha

    Онлайн видео Проклятие 2


    Размер скачиваемого торрента: 6.31 GB (6778118144 Bytes)

    Проклятие 2/The Grudge 2 (2006) DVD9 | D
    загрузка...
    Рейтинг →
     (голосов: 1, оценка 5/5, голосовать можно 1 раз )

    Другие торренты по теме:

  • Проклятие 2 / The Grudge 2 (2006) BDRip от HQCLUB | Unrated скачать через торрент бесплатно
  • Проклятие 2 / Ju-on 2 (2003) BDRip от HQCLUB скачать через торрент бесплатно
  • Проклятие 2: Укус / Curse II: The Bite (1989) BDRip | A
  • Сваха 2. Проклятие брошенной / Matchmaker 2 (2013) РС
  • Тропа мечтаний 2: Проклятие болот / Dreampath 2: Curse of Swamps CE (2014) РС
  • Сваха 2. Проклятие брошенной невесты (2013) РС скачать через торрент бесплатно


    • Комментарии (0):

      Информация

      Информация

        Посетители, находящиеся в группе Гости, не могут оставлять комментарии в данной новости.

        ↓ Меню



        ↓ Опрос

        А Вы добавили сайт в закладки?
        Да
        Не


        Top 10 за месяц (Фильмы)