.
Авторизация | Регистрация
Хочешь лучшие торренты? Добавь свой email!
Добавить
» » Между делом / Unfinished Business (2015) BDRip 720p от KinoGadget | iPad скачать торрент бесплатно




    Между делом / Unfinished Business (2015) BDRip 720p от KinoGadget | iPad скачать торрент бесплатно

    Опубликовал: Админ | Дата: 8-06-2015, 06:16 | Просмотров: 96


    Создали в: 2015
    Снималось в: США
    Категория жанра: комедия, драма
    Время просмотра: 01: 30: 58
    Перевод текста: Дублированный
    Главный режиссер: Кен Скотт

    Актеры
    Винс Вон, Том Уилкинсон, Дэйв Франко, Сиенна Миллер, Ник Фрост, Джеймс Марсден, Джун Рафаэль, Бриттон Сир, Элла Андерсон, Кен Скотт
    Описание: Трудолюбивый владелец малого бизнеса и двое его коллег отправляются в Европу, чтобы совершить самую важную сделку в их жизни. Но обычная командировка превратилась в итоге в нечто невообразимое…

    Информация о видео кодек: MPEG-4 AVC
    Качество фильма: BDRip 720p
    Параметры Видео: 1280x532, 23.976 fps; ~2 139 kbps avg
    Параметры Звука: 44.1 KHz, AAC, ~149.00 kbps avg, 2ch
    Тип видео: mp4
    Автор рипа:
    Релиз-группа:

    Meta Tags


    MI
    General
    Complete name : E: Mezhdu_delom.2015.D.BDRip.720p_KinoGadget.mp4
    Format : MPEG-4
    Format profile : Base Media
    Codec ID : isom
    File size : 1.46 GiB
    Duration : 1h 30mn
    Overall bit rate mode : Variable
    Overall bit rate : 2 295 Kbps
    Movie name : Между делом
    Performer : Кен Скотт
    Genre : Comedy
    ContentType : Short Film
    Recorded date : 2015
    Encoded date : UTC 2015-06-07 11: 17: 47
    Tagged date : UTC 2015-06-07 17: 12: 41
    Cover : Yes
    ContentRating : mpaa|R|400|
    LongDeion : Трудолюбивый владелец малого бизнеса и двое его коллег отправляются в Европу, чтобы совершить самую важную сделку в их жизни. Но обычная командировка превратилась в итоге в нечто невообразимое…
    HDVideo : Yes
    Video
    ID : 1
    Format : AVC
    Format/Info : Advanced Video Codec
    Format profile : High@L4.1
    Format settings, CABAC : Yes
    Format settings, ReFrames : 11 frames
    Codec ID : avc1
    Codec ID/Info : Advanced Video Coding
    Duration : 1h 30mn
    Bit rate : 2 139 Kbps
    Maximum bit rate : 7 899 Kbps
    Width : 1 280 pixels
    Height : 532 pixels
    Display aspect ratio : 2.40: 1
    Frame rate mode : Constant
    Frame rate : 23.976 fps
    Color space : YUV
    Chroma subsampling : 4: 2: 0
    Bit depth : 8 bits
    Scan type : Progressive
    Bits/(Pixel*Frame) : 0.131
    Stream size : 1.36 GiB (93%)
    Writing library : x264 core 146 r2538 121396c
    Encoding settings : cabac=1/ref=11/deblock=1: -1: -1/analyse=0x3: 0x133/me=umh/subme=9/psy=1/psy_rd=1.00: 0.00/mixed_ref=1/me_range=24/chroma_me=1/trellis=2/8x8dct=1/cqm=0/deadzone=21, 11/fast_pskip=1/chroma_qp_offset=-2/threads=3/lookahead_threads=1/sliced_threads=0/nr=0/decimate=1/interlaced=0/bluray_compat=0/constrained_intra=0/bframes=4/b_pyramid=2/b_adapt=2/b_bias=0/direct=3/weightb=1/open_gop=0/weightp=2/keyint=240/keyint_min=23/scenecut=40/intra_refresh=0/rc_lookahead=60/rc=crf/mbtree=1/crf=21.0/qcomp=0.60/qpmin=0/qpmax=69/qpstep=4/ip_ratio=1.40/aq=1: 1.50
    Encoded date : UTC 2015-06-06 18: 14: 11
    Tagged date : UTC 2015-06-07 11: 18: 22
    Audio
    ID : 2
    Format : AAC
    Format/Info : Advanced Audio Codec
    Format profile : LC
    Codec ID : 40
    Duration : 1h 30mn
    Bit rate mode : Variable
    Bit rate : 149 Kbps
    Maximum bit rate : 210 Kbps
    Channel count : 2 channels
    Channel positions : Front: L R
    Sampling rate : 44.1 KHz
    Compression mode : Lossy
    Stream size : 97.1 MiB (7%)
    Language : Russian
    Encoded date : UTC 2015-06-07 11: 18: 10
    Tagged date : UTC 2015-06-07 11: 18: 22

    Скриншоты


    Залил: KinoGadget

    Онлайн видео Между делом


    Размер скачиваемого торрента: 1.46 GB (1566196145 Bytes)

    Между делом/Unfinished Business (2015) BDRip 720p от KinoGadget | iPad
    загрузка...
    Рейтинг →
     (голосов: 1, оценка 5/5, голосовать можно 1 раз )

    Другие торренты по теме:

  • Неожиданный бизнес / Между делом (2015) HDRip
  • Между делом / Unfinished Business (2015) HDRip | iTunes
  • Между делом / Unfinished Business (2015) BDRip 720p | iTunes
  • Между делом / Unfinished Business (2015) BDRip 1080p | iTunes
  • Между делом / Unfinished Business (2015) BDRemux 1080p | iTunes
  • Между делом / Unfinished Business (2015) HDRip | iTunes
  • Между делом / Unfinished Business (2015) BDRip от Twi7ter | iTunes
  • Между делом / Unfinished Business (2015) BDRip-AVC | iTunes


    • Комментарии (0):

      Информация

      Информация

        Посетители, находящиеся в группе Гости, не могут оставлять комментарии в данной новости.

        ↓ Меню



        ↓ Опрос

        А Вы добавили сайт в закладки?
        Да
        Не


        Top 10 за месяц (Фильмы)