.
Авторизация | Регистрация
Хочешь лучшие торренты? Добавь свой email!
Добавить
» » Конец детства / Childhoods End (2015) WEBRip 1080p | Трейлер скачать торрент бесплатно




    Конец детства / Childhoods End (2015) WEBRip 1080p | Трейлер скачать торрент бесплатно

    Опубликовал: Админ | Дата: 7-06-2015, 12:01 | Просмотров: 145


    Создали в: 2015
    Создали в: США
    Категория жанра: фантастика
    Перевод текста: Дублированный
    Главный режиссер: Ник Харран
    Продюсеры: Майкл Де Лука, Акива Голдсман, Мэтью Грэхэм
    Актеры: Jacob Holt, Хейли Магнус, Колм Мини, Эшли Цукерман, Simone Oula, Lachlan, Roland-Kenn, Дэйзи Беттс, Корум Эллис, Ози Икхайл, Kumar Ishri
    Описание фильма:
    Сериал расскажет о мирном вторжении пришельцев на Землю: прибытие инопланетных гостей привело к немедленному прекращению войн и превратило планету практически в утопию.
    Дата мировой премьеры: -
    Дата российской премьеры: -

    Время просмотра: 00: 02: 00
    Качество фильма видео: WEBRip
    Информация о видеокодек: MPEG-4 AVC/H.264
    Битрейт видео: 2754 Кбит/сек
    Размер скачиваемого торрента кадра: 1920x800
    Информация о звукекодек: AC3 2.0
    Битрейт аудио: 126 Кбит/сек
    MediaInfo:

    Общее
    Полное имя : Конец детства (1 сезон любимого сериала) Русский Трейлер (2015).mp4
    Формат : MPEG-4
    Профиль формата : Base Media
    Идентификатор кодека : isom
    Размер файла : 41, 5 Мбайт
    Продолжительность : 2 м. 0 с.
    Общий поток : 2886 Кбит/сек
    Программа кодирования : Lavf56.19.100
    Видео
    Идентификатор : 1
    Формат : AVC
    Формат/Информация : Advanced Video Codec
    Профиль формата : High@L4
    Параметр CABAC формата : Да
    Параметр ReFrames формата : 2 кадра
    Идентификатор кодека : avc1
    Идентификатор кодека/Информация : Advanced Video Coding
    Продолжительность : 2 м. 0 с.
    Битрейт : 2754 Кбит/сек
    Ширина : 1920 пикселей
    Высота : 1080 пикселей
    Соотношение сторон : 16: 9
    Режим частоты кадров : Постоянный
    Частота кадров : 30, 000 кадров/сек
    Цветовое пространство : YUV
    Субдискретизация насыщенности : 4: 2: 0
    Битовая глубина : 8 бит
    Тип развёртки : Прогрессивная
    Бит/(Пиксели*Кадры) : 0.044
    Размер потока : 39, 6 Мбайт (95%)
    Аудио
    Идентификатор : 2
    Формат : AAC
    Формат/Информация : Advanced Audio Codec
    Профиль формата : LC
    Идентификатор кодека : 40
    Продолжительность : 2 м. 0 с.
    Вид битрейта : Постоянный
    Битрейт : 126 Кбит/сек
    Каналы : 2 канала
    Расположение каналов : Front: L R
    Частота : 44, 1 КГц
    Метод сжатия : С потерями
    Размер потока : 1, 81 Мбайт (4%)

    Скриншоты



    Скриншоты



    Залил: Jokerzv

    Онлайн видео Конец детства


    Размер скачиваемого торрента: 41.50 MB (43512032 Bytes)

    Конец детства/Childhoods End (2015) WEBRip 1080p | Трейлер
    загрузка...
    Рейтинг →
     (голосов: 1, оценка 5/5, голосовать можно 1 раз )

    Другие торренты по теме:

  • Кларк Артур - Конец детства (2011) MP3
  • Конец детства / Childhoods End (2015) WEB-DLRip | BaibaKo
  • Конец детства / Childhoods End (2015) WEB-DL 720p | NewStudio
  • Конец детства / Childhoods End (2015) WEB-DL 1080p от qqss44 | NewStudio
  • Конец детства / Childhoods End (2015) WEB-DL 1080p | BaibaKo
  • Конец детства / Childhoods End (2015) WEB-DLRip | IdeaFilm
  • Конец детства / Childhoods End (2015) HDTVRip 720р | ViruseProject
  • Конец детства / Childhoods End (2015) WEB-DLRip | КПК | Lostfilm


    • Комментарии (0):

      Информация

      Информация

        Посетители, находящиеся в группе Гости, не могут оставлять комментарии в данной новости.

        ↓ Меню



        ↓ Опрос

        А Вы добавили сайт в закладки?
        Да
        Не


        Top 10 за месяц (Фильмы)