.
Авторизация | Регистрация
Хочешь лучшие торренты? Добавь свой email!
Добавить
» » Проклятие / The Grudge (2004) DVD9 | D скачать торрент бесплатно




    Проклятие / The Grudge (2004) DVD9 | D скачать торрент бесплатно

    Опубликовал: Админ | Дата: 7-06-2015, 12:00 | Просмотров: 93


    Детально о кино
    Русское название: Проклятие
    Русское название в мировом прокате: The Grudge
    Создали в: 2004
    Категория жанра: ужасы, триллер, детектив
    Главный режиссер: Такаси Симидзу

    Актеры
    Сара Мишель Геллар, Джейсон Бер, Уильям Мапотер, Клеа ДюВалл, КаДи Стрикленд, Грейс Забриски, Билл Пуллман, Роза Блази, Тед Рэйми, Рё Исибаси

    Сюжет фильма

    Проклятие умерших обитает в местах, где они жили, поджидая новую жертву. Когда проклятие находит новую жертву — она умирает. А проклятие становится только сильнее. И так, убивая жертву за жертвой, однажды брошенное проклятие как вирус распространяется и плетет сеть ужаса…

    Снималось в: США, Япония
    Киностудия: Ghost House Pictures, Renaissance Pictures, Vertigo Entertainment
    Время просмотра: 88 мин./01: 28
    Перевод текста: полное дублирование
    Файл
    Кодек для видео: MPEG2
    Качество фильма: DVD9 CP-Digital
    Информация о видео: PAL 16: 9 (720x576@1024x576) VBR 6762 Kbps, 25.000 fps
    Информация о звуке 1: Dolby AC3, 6 ch, 48.0 KHz, 448 Кbps (русский, английский)
    Информация о звуке 2: DTS 6 ch, 48.0 KHz, 1536 Kbps (русский)
    Субтитры: русские
    MediaInfo
    Общее
    Полное имя : D: Проклятие.2004.DVD9VIDEO_TSVTS_11_1.VOB
    Формат : MPEG-PS
    Размер файла : 1024 Мбайт
    Продолжительность : 15 м.
    Режим общего битрейта : Переменный
    Общий поток : 9354 Кбит/сек
    Видео
    Идентификатор : 224 (0xE0)
    Формат : MPEG Video
    Версия формата : Version 2
    Профиль формата : Main@Main
    Параметр BVOP формата : Да
    Параметр матрицы формата : Выборочная
    Параметр GOP формата : M=3, N=15
    Структура изображения : Frame
    Продолжительность : 15 м.
    Вид битрейта : Переменный
    Битрейт : 6762 Кбит/сек
    Максимальный битрейт : 8500 Кбит/сек
    Ширина : 720 пикселей
    Высота : 576 пикселей
    Соотношение сторон : 16: 9
    Частота кадров : 25, 000 кадров/сек
    Стандарт вещания : PAL
    Цветовое пространство : YUV
    Субдискретизация насыщенности : 4: 2: 0
    Битовая глубина : 8 бит
    Тип развёртки : Чересстрочная
    Порядок развёртки : Верхнее поле первое
    Метод сжатия : С потерями
    Бит/(Пиксели*Кадры) : 0.652
    Временной код первого кадра : 00: 59: 59: 10
    Оригинал временного кода : Group of pictures t_head
    GOP, открыто/закрыто : Закрыто
    Размер потока : 740 Мбайт (72%)
    Аудио #1
    Идентификатор : 189 (0xBD)-128 (0x80)
    Формат : AC-3
    Формат/Информация : Audio Coding 3
    Расширение режима : CM (complete main)
    Параметр Endianness формата : Big
    Режим смешивания : DVD-Video
    Продолжительность : 15 м.
    Вид битрейта : Постоянный
    Битрейт : 448 Кбит/сек
    Каналы : 6 каналов
    Расположение каналов : Front: L C R, Side: L R, LFE
    Частота : 48, 0 КГц
    Метод сжатия : С потерями
    Размер потока : 49, 0 Мбайт (5%)
    Аудио #2
    Идентификатор : 189 (0xBD)-129 (0x81)
    Формат : AC-3
    Формат/Информация : Audio Coding 3
    Расширение режима : CM (complete main)
    Параметр Endianness формата : Big
    Режим смешивания : DVD-Video
    Продолжительность : 15 м.
    Вид битрейта : Постоянный
    Битрейт : 448 Кбит/сек
    Каналы : 6 каналов
    Расположение каналов : Front: L C R, Side: L R, LFE
    Частота : 48, 0 КГц
    Метод сжатия : С потерями
    Размер потока : 49, 0 Мбайт (5%)
    Аудио #3
    Идентификатор : 189 (0xBD)-138 (0x8A)
    Формат : DTS
    Формат/Информация : Digital Theater Systems
    Режим : 16
    Параметр Endianness формата : Big
    Режим смешивания : DVD-Video
    Продолжительность : 15 м.
    Вид битрейта : Постоянный
    Битрейт : 1510 Кбит/сек
    Каналы : 6 каналов
    Расположение каналов : Front: L C R, Side: L R, LFE
    Частота : 48, 0 КГц
    Битовая глубина : 24 бит
    Метод сжатия : С потерями
    Размер потока : 165 Мбайт (16%)
    Меню
    Скриншоты


    Залил: carisha

    Онлайн видео Проклятие


    Размер скачиваемого торрента: 7.24 GB (7778793472 Bytes)

    Проклятие/The Grudge (2004) DVD9 | D
    загрузка...
    Рейтинг →
     (голосов: 1, оценка 3/5, голосовать можно 1 раз )

    Другие торренты по теме:

  • Наталья Жильцова - Проклятие некроманта 01. Проклятие некроманта (2015) MP3
  • Обитель зла Проклятие / Biohazard Damnation / Resident Evil Damnation (2012) BDRip 1080p от R.G. GoldenShara | Лицензия
  • Обитель Зла: Проклятие / Resident Evil: Damnation (2012) BDRemux 1080p
  • Расколотое проклятие: Кровавый Рубин / Break The Curse: The Crimson Gems (2012) PC
  • Библиотекарь 3: Проклятие Иудовой чаши / The Librarian: The Curse of the Judas Chalice (2008) BDRemux 1080p от HDTracker
  • Сваха 2. Проклятие брошенной / Matchmaker 2 (2013) РС
  • Обитель Зла: Проклятие 3Д / Resident Evil: Damnation 3D (2012) BDRip 1080p | 3D-Video
  • Пираты Карибского моря: Проклятие Черной жемчужины / Pirates of the Caribbean: The Curse of the Black Pearl (2003) BDRip-AVC


    • Комментарии (0):

      Информация

      Информация

        Посетители, находящиеся в группе Гости, не могут оставлять комментарии в данной новости.

        ↓ Меню



        ↓ Опрос

        А Вы добавили сайт в закладки?
        Да
        Не


        Top 10 за месяц (Фильмы)