.
Авторизация | Регистрация
Хочешь лучшие торренты? Добавь свой email!
Добавить




Весна (1947) DVDRip от New-Team скачать торрент бесплатно

Опубликовал: Админ | Дата: 7-06-2015, 06:09 | Просмотров: 203


Снималось в: СССР
Создали в: Мосфильм
Категория жанра: мюзикл, фантастика, мелодрама, комедия
Создали в: 1947
Время просмотра: 01: 41: 56
Перевод текста: Не требуется
Субтитры подготовлены: нет
Оригинальная аудиодорожка: русский
Главный режиссер: Григорий Александров

Актеры

Любовь Орлова, Николай Черкасов, Николай Коновалов, Михаил Сидоркин, Василий Зайчиков, Ростислав Плятт, Фаина Раневская, Рина Зелёная, Борис Петкер, Татьяна Гурецкая...
Описание:
Лирическая комедия, тему которой сами герои определяют как пробуждение весны в душе человека. Молодая артистка оперетты Вера Шатрова впервые снимается в кино — ей предстоит сыграть роль Ирины Никитиной, крупного ученого, руководительницы Института солнца. Благодаря удивительному сходству, Никитина и Шатрова постоянно оказываются в самых невероятных ситуациях и… каждая встречает свою любовь.



Источник: DVB
Качество фильма видео: SATRip
Тип видео видео: AVI
Информация о видео: 576x416 (1, 385: 1), 25 fps, XviD ~ 885 kbps avg, 0.148 bit/pixel
Информация о звуке: 48 kHz, MP3 2.0, 128 kbps
Раздача от:
MediaInfo

Общее
Полное имя : Vesna.1947.SATRip-745_New-team_by_AVP_Studio.avi
Формат : AVI
Формат/Информация : Audio Video Interleave
Размер файла : 745 Мбайт
Продолжительность : 1 ч. 41 м.
Общий поток : 1022 Кбит/сек
Программа кодирования : VirtualDubModRus 1.5.10.2 (build 2542/release)
Библиотека кодирования : VirtualDubMod build 2542/release
Видео
Идентификатор : 0
Формат : MPEG-4 Visual
Профиль формата : Advanced Simple@L5
Параметр BVOP формата : 1
Параметр QPel формата : Нет
Параметр GMC формата : Без точки перехода
Параметр матрицы формата : Выборочная
Идентификатор кодека : XVID
Идентификатор кодека/Подсказка : XviD
Продолжительность : 1 ч. 41 м.
Битрейт : 885 Кбит/сек
Ширина : 576 пикселей
Высота : 416 пикселей
Соотношение сторон : 1, 385
Частота кадров : 25, 000 кадров/сек
Цветовое пространство : YUV
Субдискретизация насыщенности : 4: 2: 0
Битовая глубина : 8 бит
Тип развёртки : Прогрессивная
Метод сжатия : С потерями
Бит/(Пиксели*Кадры) : 0.148
Размер потока : 645 Мбайт (87%)
Библиотека кодирования : XviD 73
Аудио
Идентификатор : 1
Формат : MPEG Audio
Версия формата : Version 1
Профиль формата : Layer 3
Идентификатор кодека : 55
Идентификатор кодека/Подсказка : MP3
Продолжительность : 1 ч. 41 м.
Вид битрейта : Постоянный
Битрейт : 128 Кбит/сек
Каналы : 2 канала
Частота : 48, 0 КГц
Метод сжатия : С потерями
Размер потока : 93, 3 Мбайт (13%)
Выравнивание : Соединение по промежуткам
Продолжительность промежутка : 40 мс. (1, 00 видеокадр)
Время предзагрузки промежутка : 504 мс.
Библиотека кодирования : LAME3.99r
Залил: AVPStudio

Онлайн видео Весна (1947) DVDRip от New


Размер скачиваемого торрента: 745.48 MB (781692928 Bytes)


Весна (1947) DVDRip от New-Team
загрузка...
Рейтинг →
 (голосов: 1, оценка 3/5, голосовать можно 1 раз )

Другие торренты по теме:

  • Весна, лето, осень, зима... и снова весна / Bom yeoreum gaeul gyeoul geurigo bom (2003) BDRip от HQCLUB
  • Весна, лето, осень, зима... и снова весна / Bom yeoreum gaeul gyeoul geurigo bom (2003) HDRip-AVC | iPhone
  • Весна, лето, осень, зима... и снова весна / Bom yeoreum gaeul gyeoul geurigo bom (2003) BDRip 720p | Gears Media скачать через торрент бесплатно
  • Весна, лето, осень, зима... и снова весна / Bom yeoreum gaeul gyeoul geurigo bom (2003) BDRip 720p от NNNB | A
  • Весна в моём родном городе / Areumdawoon sheejul (1998) DVDRip
  • Обои для рабочего стола - Весна (2013) JPG
  • Сборник - Бомба Года: Танцевальный Выпуск 50 50 Весна (2013) MP3
  • Сборник - Наступила весна (2013) MP3


    • Комментарии (0):

      Информация

      Информация

        Посетители, находящиеся в группе Гости, не могут оставлять комментарии в данной новости.

        ↓ Меню



        ↓ Опрос

        А Вы добавили сайт в закладки?
        Да
        Не


        Top 10 за месяц (Фильмы)