.
Авторизация | Регистрация
Хочешь лучшие торренты? Добавь свой email!
Добавить
» » Робот по имени Чаппи / Chappie (2015) BDRemux 1080p от ExKinoRay | Лицензия скачать торрент бесплатно




    Робот по имени Чаппи / Chappie (2015) BDRemux 1080p от ExKinoRay | Лицензия скачать торрент бесплатно

    Опубликовал: Админ | Дата: 6-06-2015, 18:01 | Просмотров: 57


    Детально о кино
    Русское название: Робот по имени Чаппи
    Русское название в мировом прокате: Chappie
    Создали в: 2015
    Категория жанра: Фантастика, боевик, триллер
    Снималось в: США, Мексика, ЮАР. Alpha Core, Columbia Pictures, Genre Films, LStar Capital, Media Rights Capital, Ollin Studio, Simon Kinberg Productions, Sony Pictures Entertainment (SPE)
    Главный режиссер: Нил Бломкамп

    Актеры
    Шарлто Копли, Дев Патель, Ниндзя, Йоланди Фиссер, Хосе Пабло Кантилльо, Хью Джекман, Сигурни Уивер, Брэндон Оре, Джонни Селема, Андерсон Купер

    Сюжет фильма
    Чаппи - вундеркинд. Как и любой другой ребенок, он попадает под влияние своего окружения, и только его сердце и душа помогут ему найти свой путь. Но есть одна вещь, которая делает Чаппи непохожим на всех остальных: он – первый робот, способный чувствовать и думать.

    Файл
    Качество фильма: Blu-Ray Remux (1080p)
    Информация о видео: MPEG-4 AVC, 21942 Кбит/с, 1920x1080, 23.976 кадр/с
    Информация о звуке: Русский, украинский (AC3, 6 ch, 640 Кбит/с), английский (DTS-HD MA, 8 ch, 2932 Кбит/с)
    Размер скачиваемого торрента: 21.98 ГБ
    Время просмотра: 02: 00: 19
    Перевод текста: Дублированный
    Субтитры: Русские, украинские, английские
    Озвучивание - Дублированное (Лицензия)
    Сохранены оригинальные чаптеры как на Blu-Ray.
    Инфо-файл

    Общее
    Уникальный идентификатор : 216870635585433559702114519020832387396 (0xA327C3DE75E35FA0AC5FB4CBB1557144)
    Полное имя : D: ЗагрузкиChappie.2015..BDRemux.CEE.(1080p).ExKinoRay.mkv
    Формат : Matroska
    Версия формата : Version 2
    Размер файла : 22, 0 Гбайт
    Продолжительность : 2 ч. 0 м.
    Режим общего битрейта : Переменный
    Общий поток : 26, 2 Мбит/сек
    Название фильма : Робот по имени Чаппи.2015.Сборка: ollan
    Дата кодирования : UTC 2015-06-06 11: 27: 48
    Программа кодирования : mkvmerge v5.6.0 (;Kenya Kane;) built on May 27 2012 16: 44: 04
    Библиотека кодирования : libebml v1.2.3 + libmatroska v1.3.0
    Видео
    Идентификатор : 1
    Формат : AVC
    Формат/Информация : Advanced Video Codec
    Профиль формата : High@L4.1
    Параметр CABAC формата : Да
    Параметр ReFrames формата : 2 кадра
    Параметр GOP формата : M=1, N=10
    Идентификатор кодека : V_MPEG4/ISO/AVC
    Продолжительность : 2 ч. 0 м.
    Вид битрейта : Переменный
    Ширина : 1920 пикселей
    Высота : 1080 пикселей
    Соотношение сторон : 16: 9
    Режим частоты кадров : Постоянный
    Частота кадров : 23, 976 кадра/сек
    Цветовое пространство : YUV
    Субдискретизация насыщенности : 4: 2: 0
    Битовая глубина : 8 бит
    Тип развёртки : Прогрессивная
    Язык : English
    Default : Да
    Forced : Нет
    Аудио #1
    Идентификатор : 2
    Формат : AC-3
    Формат/Информация : Audio Coding 3
    Расширение режима : CM (complete main)
    Параметр Endianness формата : Big
    Идентификатор кодека : A_AC3
    Продолжительность : 2 ч. 0 м.
    Вид битрейта : Постоянный
    Битрейт : 640 Кбит/сек
    Каналы : 6 каналов
    Расположение каналов : Front: L C R, Side: L R, LFE
    Частота : 48, 0 КГц
    Битовая глубина : 16 бит
    Метод сжатия : С потерями
    Размер потока : 551 Мбайт (2%)
    Заголовок : Дублированный (Лицензия СЕЕ)
    Язык : Russian
    Default : Да
    Forced : Нет
    Аудио #2
    Идентификатор : 3
    Формат : AC-3
    Формат/Информация : Audio Coding 3
    Расширение режима : CM (complete main)
    Параметр Endianness формата : Big
    Идентификатор кодека : A_AC3
    Продолжительность : 2 ч. 0 м.
    Вид битрейта : Постоянный
    Битрейт : 640 Кбит/сек
    Каналы : 6 каналов
    Расположение каналов : Front: L C R, Side: L R, LFE
    Частота : 48, 0 КГц
    Битовая глубина : 16 бит
    Метод сжатия : С потерями
    Размер потока : 551 Мбайт (2%)
    Заголовок : Дублированный (Лицензия СЕЕ)
    Язык : Ukrainian
    Default : Нет
    Forced : Нет
    Аудио #3
    Идентификатор : 4
    Формат : DTS
    Формат/Информация : Digital Theater Systems
    Профиль формата : MA/Core
    Режим : 16
    Параметр Endianness формата : Big
    Идентификатор кодека : A_DTS
    Продолжительность : 2 ч. 0 м.
    Вид битрейта : Переменный
    Битрейт : Неизвестно/1509 Кбит/сек
    Каналы : 8 каналов/6 каналов
    Расположение каналов : Front: L C R, Side: L R, Back: L R, LFE/Front: L C R, Side: L R, LFE
    Частота : 48, 0 КГц
    Битовая глубина : 16 бит
    Метод сжатия : Без потерь/Lossy
    Язык : English
    Default : Нет
    Forced : Нет
    Текст #1
    Идентификатор : 5
    Формат : UTF-8
    Идентификатор кодека : S_TEXT/UTF8
    Идентификатор кодека/Информация : UTF-8 Plain Text
    Заголовок : Forced
    Язык : Russian
    Default : Да
    Forced : Нет
    Текст #2
    Идентификатор : 6
    Формат : UTF-8
    Идентификатор кодека : S_TEXT/UTF8
    Идентификатор кодека/Информация : UTF-8 Plain Text
    Заголовок : Full
    Язык : Russian
    Default : Нет
    Forced : Нет
    Текст #3
    Идентификатор : 7
    Формат : UTF-8
    Идентификатор кодека : S_TEXT/UTF8
    Идентификатор кодека/Информация : UTF-8 Plain Text
    Заголовок : Full
    Язык : Ukrainian
    Default : Нет
    Forced : Нет
    Текст #4
    Идентификатор : 8
    Формат : UTF-8
    Идентификатор кодека : S_TEXT/UTF8
    Идентификатор кодека/Информация : UTF-8 Plain Text
    Заголовок : Forced
    Язык : English
    Default : Нет
    Forced : Нет
    Текст #5
    Идентификатор : 9
    Формат : UTF-8
    Идентификатор кодека : S_TEXT/UTF8
    Идентификатор кодека/Информация : UTF-8 Plain Text
    Заголовок : Full
    Язык : English
    Default : Нет
    Forced : Нет
    Меню
    00: 00: 00.000 : en: Chapter 01
    00: 03: 37.008 : en: Chapter 02
    00: 09: 55.261 : en: Chapter 03
    00: 13: 50.496 : en: Chapter 04
    00: 21: 53.645 : en: Chapter 05
    00: 31: 17.125 : en: Chapter 06
    00: 37: 19.320 : en: Chapter 07
    00: 46: 58.732 : en: Chapter 08
    00: 54: 36.690 : en: Chapter 09
    01: 06: 12.927 : en: Chapter 10
    01: 09: 57.651 : en: Chapter 11
    01: 16: 48.395 : en: Chapter 12
    01: 24: 59.552 : en: Chapter 13
    01: 31: 35.198 : en: Chapter 14
    01: 42: 36.942 : en: Chapter 15
    01: 50: 03.597 : en: Chapter 16

    Скриншоты





    Релиз подготовил: Сборка:
    Залил: ollan

    Онлайн видео Робот по имени Чаппи


    Размер скачиваемого торрента: 21.98 GB (23605685693 Bytes)

    Робот по имени Чаппи/Chappie (2015) BDRemux 1080p от ExKinoRay | Лицензия
    загрузка...
    Рейтинг →
     (голосов: 1, оценка 3/5, голосовать можно 1 раз )

    Другие торренты по теме:

  • Робот по имени Чаппи / Chappie (2015) CAMRip
  • Робот по имени Чаппи / Chappie (2015) TS *PROPER*
  • Робот по имени Чаппи / Chappie (2015) TS
  • Робот по имени Чаппи / Chappie (2015) WEB-DL 720p | iTunes
  • Робот по имени Чаппи / Chappie (2015) WEB-DLRip от Scarabey | iTunes
  • Робот по имени Чаппи / Chappie (2015) WEB-DLRip-AVC | iTunes
  • Робот по имени Чаппи / Chappie (2015) HDRip | iTunes
  • Робот по имени Чаппи / Chappie (2015) BDRip 720p | iTunes


    • Комментарии (0):

      Информация

      Информация

        Посетители, находящиеся в группе Гости, не могут оставлять комментарии в данной новости.

        ↓ Меню



        ↓ Опрос

        А Вы добавили сайт в закладки?
        Да
        Не


        Top 10 за месяц (Фильмы)