.
Авторизация | Регистрация
Хочешь лучшие торренты? Добавь свой email!
Добавить
» » Землетрясение в Сан-Андреас / San Andreas Quake (2015) BDRip 720p от KinoGadget | iPad скачать торрент бесплатно




    Землетрясение в Сан-Андреас / San Andreas Quake (2015) BDRip 720p от KinoGadget | iPad скачать торрент бесплатно

    Опубликовал: Админ | Дата: 6-06-2015, 00:05 | Просмотров: 85


    Создали в: 2015
    Снималось в: США
    Категория жанра: фантастика, боевик
    Время просмотра: 01: 23: 48
    Перевод текста: Любительский одноголосый
    Главный режиссер: Джон Баумгартнер

    Актеры
    Джихей Цастлес, Блэйр Чандлер, Алекс Дил, Роберт Еванс, Шон Жерардо, Джастин Хоффмайстер, Дж. Кристофер, Тинаша Виллиамс, Кенни Сантьяго Марреро, Лэйн Таунсенд
    Описание: Дискредитированный сейсмолог из Лос-Анджелеса сообщает о надвигающейся катастрофе — 12, 7 баллов землетрясении. Но ее никто не воспринимает всерьез. Теперь у нее есть несколько часов, чтобы спасти свою семью от катастрофы.

    Информация о видео кодек: MPEG-4 AVC
    Качество фильма: BDRip 720p
    Параметры Видео: 1280x720, 23.976 fps; ~1 793 kbps avg
    Параметры Звука: 44.1 KHz, AAC, ~150.00 kbps avg, 2ch
    Тип видео: mp4
    Автор рипа:
    Релиз-группа:

    Meta Tags


    MI
    General
    Complete name : E: Zemletryasenie_v_San-Andreas.2015.L1.BDRip.720p_KinoGadget.mp4
    Format : MPEG-4
    Format profile : Base Media
    Codec ID : isom
    File size : 1.14 GiB
    Duration : 1h 23mn
    Overall bit rate mode : Variable
    Overall bit rate : 1 951 Kbps
    Movie name : Землетрясение в Сан-Андреас
    Performer : Джон Баумгартнер
    Genre : Action
    ContentType : Short Film
    Recorded date : 2015
    Encoded date : UTC 2015-06-05 17: 36: 19
    Tagged date : UTC 2015-06-05 17: 40: 29
    Cover : Yes
    LongDeion : Дискредитированный сейсмолог из Лос-Анджелеса сообщает о надвигающейся катастрофе — 12, 7 баллов землетрясении. Но ее никто не воспринимает всерьез. Теперь у нее есть несколько часов, чтобы спасти свою семью от катастрофы.
    HDVideo : Yes
    Video
    ID : 1
    Format : AVC
    Format/Info : Advanced Video Codec
    Format profile : High@L4.1
    Format settings, CABAC : Yes
    Format settings, ReFrames : 9 frames
    Codec ID : avc1
    Codec ID/Info : Advanced Video Coding
    Duration : 1h 23mn
    Bit rate : 1 793 Kbps
    Maximum bit rate : 23.6 Mbps
    Width : 1 280 pixels
    Height : 720 pixels
    Display aspect ratio : 16: 9
    Frame rate mode : Constant
    Frame rate : 23.976 fps
    Color space : YUV
    Chroma subsampling : 4: 2: 0
    Bit depth : 8 bits
    Scan type : Progressive
    Bits/(Pixel*Frame) : 0.081
    Stream size : 1.05 GiB (92%)
    Writing library : x264 core 146 r2538 121396c
    Encoding settings : cabac=1/ref=9/deblock=1: -1: -1/analyse=0x3: 0x133/me=umh/subme=9/psy=1/psy_rd=1.00: 0.00/mixed_ref=1/me_range=24/chroma_me=1/trellis=2/8x8dct=1/cqm=0/deadzone=21, 11/fast_pskip=1/chroma_qp_offset=-2/threads=3/lookahead_threads=1/sliced_threads=0/nr=0/decimate=1/interlaced=0/bluray_compat=0/constrained_intra=0/bframes=3/b_pyramid=2/b_adapt=2/b_bias=0/direct=3/weightb=1/open_gop=0/weightp=2/keyint=250/keyint_min=25/scenecut=40/intra_refresh=0/rc_lookahead=60/rc=crf/mbtree=1/crf=21.0/qcomp=0.60/qpmin=0/qpmax=69/qpstep=4/ip_ratio=1.40/aq=1: 0.50
    Encoded date : UTC 2015-06-05 07: 49: 04
    Tagged date : UTC 2015-06-05 17: 37: 00
    Audio
    ID : 2
    Format : AAC
    Format/Info : Advanced Audio Codec
    Format profile : LC
    Codec ID : 40
    Duration : 1h 23mn
    Bit rate mode : Variable
    Bit rate : 150 Kbps
    Maximum bit rate : 184 Kbps
    Channel count : 2 channels
    Channel positions : Front: L R
    Sampling rate : 44.1 KHz
    Compression mode : Lossy
    Stream size : 89.6 MiB (8%)
    Language : Russian
    Encoded date : UTC 2015-06-05 17: 36: 47
    Tagged date : UTC 2015-06-05 17: 37: 00

    Скриншоты


    Залил: KinoGadget

    Онлайн видео Землетрясение в Сан-Андреас


    Размер скачиваемого торрента: 1.14 GB (1226059438 Bytes)

    Землетрясение в Сан-Андреас/San Andreas Quake (2015) BDRip 720p от KinoGadget | iPad
    загрузка...
    Рейтинг →
     (голосов: 1, оценка 4/5, голосовать можно 1 раз )

    Другие торренты по теме:

  • 03:34 Землетрясение в Чили / 03:34 Terremoto en Chile (2011) HDRip от ClubTorrent | P2 скачать через торрент бесплатно
  • Землетрясение в Сан - Андреас / San Andreas Quake (2015) HDRip | L1
  • Землетрясение в Сан - Андреас / San Andreas Quake (2015) BDRip 720p | L1
  • Землетрясение в Сан - Андреас / San Andreas Quake (2015) HDRip от -=HD-NET=- | КПК | L1
  • Землетрясение в Сан - Андреас / San Andreas Quake (2015) HDRip-AVC от -=HD-NET=- | L1


    • Комментарии (0):

      Информация

      Информация

        Посетители, находящиеся в группе Гости, не могут оставлять комментарии в данной новости.

        ↓ Меню



        ↓ Опрос

        А Вы добавили сайт в закладки?
        Да
        Не


        Top 10 за месяц (Фильмы)