.
Авторизация | Регистрация
Хочешь лучшие торренты? Добавь свой email!
Добавить
» » Дневники вампира / The Vampire Diaries (2009-2015) HDRip, WEB-DLRip от Generalfilm | КПК | LostFilm скачать торрент бесплатно




    Дневники вампира / The Vampire Diaries (2009-2015) HDRip, WEB-DLRip от Generalfilm | КПК | LostFilm скачать торрент бесплатно

    Опубликовал: Админ | Дата: 5-06-2015, 03:08 | Просмотров: 132


    Детально о кино
    Русское название: Дневники вампира
    Русское название в мировом прокате: The Vampire Diaries
    Создали в: 2009
    Категория жанра: Ужасы, фэнтези, триллер, драма, мелодрама, детектив
    Главный режиссер: Маркос Сига, Роб Харди, Дэвид Фон Энкен, Дж. Миллер Тобин, Джон Беринг, Джошуа Батлер, Джон Дал, Лиз Фридлендер, Крис Грисмер, Венди Станцлер, Кевин Брэй

    Актеры
    Нина Добрев, Пол Уэсли, Иэн Сомерхолдер, Стивен Р. МакКуин, Катерина Грэхэм, Кэндис Аккола, Зак Рериг, Майкл Тревино, Сара Каннинг, Кайла Юэлл, Дэвид Андерс, Клер Холт, Тейлор Кинни, Келли Ху, Роберт Пралго, Брайтон МакКлур, Михаэлла МакМанус, Джэсмин Гай, Рэнди Дж. Гудвин, Миа Киршнер, Лорен Коэн, Крис Дж. Джонсон, Себастьян Роше, Торри ДеВито, Бьянка Лоусон, Джек Коулмэн, Доун Оливери, Стер

    Сюжет фильма

    Прошло всего четыре месяца после трагической аварии, в которой погибли их родители, и 17-летняя Елена Гилберт и ее 15-летний брат Джереми все еще пытаются оправиться от потери и вернуться к нормальной жизни. Елена всегда была отличной ученицей, красивой и популярной девушкой в школе, но теперь ей очень тяжело скрывать свою печаль от внешнего мира. В начале учебного года внимание Елены и ее друзей привлекает новый ученик, загадочный и красивый Стефан Сальваторе. Стефан и Елена тут же чувствуют взаимную симпатию, но Елена даже не подозревает, что Стефан — вампир, которому уже сотни лет, и который старается мирно жить среди людей, несмотря на то, что его брат, Дэймон — воплощение вампирской жестокости и кровожадности. Теперь два брата-вампира — один добрый, другой злой — ведут борьбу за души Елены, ее друзей и других жителей городка Мистик Фоллз.

    Снималось в: США
    Киностудия: Reveille Productions, NBC Universal Television, Deedle-Dee Productions, Universal Media Studios (UMS), Universal TV
    Время просмотра: 133 x ~ 00: 42: 00
    Перевод текста: Профессиональный (многоголосый, закадровый) LostFilm
    Файл
    Тип видео: MP4
    Качество фильма: HDRip 1-2 Сезон, WEB-DLRip 3-6 Сезон | КПК
    Информация о видео: MPEG-4 AVC (x264), 640x360, ~500 kbps, 23.976 fps
    Информация о звуке: AAC LC, 44.1 KHz, 2 ch, 128 Kbps
    Субтитры: Нет
    Семпл
    Скриншоты

    MI
    Complete name : E: KinoDnevniki.Vampira.AVC.KPK.GeneralfilmDnevniki.Vampira.S06.2014-2015.AVC.WEB-DLRip.KPK.LF.GeneralfilmDnevniki.Vampira.s06e22.2015.AVC.WEB-DLRip.KPK.Generalfilm.mp4
    Format : MPEG-4
    Format profile : Base Media
    Codec ID : isom
    File size : 193 MiB
    Duration : 42mn 45s
    Overall bit rate mode : Variable
    Overall bit rate : 631 Kbps
    Encoded date : UTC 2015-05-28 09: 19: 38
    Tagged date : UTC 2015-05-28 09: 19: 38
    Video
    ID : 1
    Format : AVC
    Format/Info : Advanced Video Codec
    Format profile : High@L4.1
    Format settings, CABAC : Yes
    Format settings, ReFrames : 8 frames
    Codec ID : avc1
    Codec ID/Info : Advanced Video Coding
    Duration : 42mn 44s
    Bit rate : 500 Kbps
    Maximum bit rate : 4 550 Kbps
    Width : 640 pixels
    Height : 360 pixels
    Display aspect ratio : 16: 9
    Frame rate mode : Constant
    Frame rate : 23.976 fps
    Color space : YUV
    Chroma subsampling : 4: 2: 0
    Bit depth : 8 bits
    Scan type : Progressive
    Bits/(Pixel*Frame) : 0.091
    Stream size : 153 MiB (79%)
    Writing library : x264 core 130 r2273 b3065e6
    Encoding settings : cabac=1/ref=8/deblock=1: -2: -2/analyse=0x3: 0x133/me=umh/subme=10/psy=1/psy_rd=1.00: 0.00/mixed_ref=1/me_range=24/chroma_me=1/trellis=2/8x8dct=1/cqm=0/deadzone=21, 11/fast_pskip=1/chroma_qp_offset=-2/threads=12/lookahead_threads=2/sliced_threads=0/nr=0/decimate=0/interlaced=0/bluray_compat=0/constrained_intra=0/bframes=8/b_pyramid=2/b_adapt=2/b_bias=0/direct=3/weightb=1/open_gop=0/weightp=2/keyint=240/keyint_min=121/scenecut=40/intra_refresh=0/rc_lookahead=40/rc=2pass/mbtree=1/bitrate=500/ratetol=1.0/qcomp=0.60/qpmin=0/qpmax=69/qpstep=4/cplxblur=20.0/qblur=0.5/ip_ratio=1.40/aq=1: 1.00
    Encoded date : UTC 2015-05-28 09: 19: 38
    Tagged date : UTC 2015-05-28 09: 19: 42
    Audio
    ID : 2
    Format : AAC
    Format/Info : Advanced Audio Codec
    Format profile : LC
    Codec ID : 40
    Duration : 42mn 45s
    Bit rate mode : Variable
    Bit rate : 128 Kbps
    Maximum bit rate : 149 Kbps
    Channel(s) : 2 channels
    Channel positions : Front: L R
    Sampling rate : 48.0 KHz
    Compression mode : Lossy
    Stream size : 39.0 MiB (20%)
    Encoded date : UTC 2015-05-28 09: 19: 41
    Tagged date : UTC 2015-05-28 09: 19: 42

    Релиз подготовил:
    Залил: toys_watch

    Онлайн видео Дневники вампира


    Размер скачиваемого торрента: 24.79 GB (26621408200 Bytes)

    Дневники вампира/The Vampire Diaries (2009-2015) HDRip, WEB-DLRip от Generalfilm | КПК | LostFilm
    загрузка...
    Рейтинг →
     (голосов: 1, оценка 4/5, голосовать можно 1 раз )

    Другие торренты по теме:

  • Дневники вампира / The Vampire Diaries (2012) WEB-DLRip | Кубик в Кубе
  • Дневники вампира / The Vampire Diaries (2013) WEB-DLRip | Кубик в кубе
  • Дневники Вампира / The Vampire Diaries (2013) HDTVRip | Kerob
  • Дневники Вампира / The Vampire Diaries (2013) HDTV 720p | LostFilm
  • Дневники Вампира / The Vampire Diaries (2013) HDTVRip | LostFilm
  • Дневники вампира / The Vampire Diaries (2013) WEB-DLRip | LostFilm скачать через торрент бесплатно
  • Дневники Вампира / Vampire Diaries (2013) WEB-DLRip от Youtracker | КПК скачать через торрент бесплатно
  • Дневники вампира / The Vampire Diaries (2013) WEB-DLRip 720p | Кубик в кубе скачать через торрент бесплатно


    • Комментарии (0):

      Информация

      Информация

        Посетители, находящиеся в группе Гости, не могут оставлять комментарии в данной новости.

        ↓ Меню



        ↓ Опрос

        А Вы добавили сайт в закладки?
        Да
        Не


        Top 10 за месяц (Фильмы)