.
Авторизация | Регистрация
Хочешь лучшие торренты? Добавь свой email!
Добавить
» » Прогулка в облаках / A Walk in the Clouds (1995) BDRip 720p от HQ-ViDEO | P скачать торрент бесплатно




    Прогулка в облаках / A Walk in the Clouds (1995) BDRip 720p от HQ-ViDEO | P скачать торрент бесплатно

    Опубликовал: Админ | Дата: 4-06-2015, 18:01 | Просмотров: 131

    Прогулка в облаках/A Walk in the Clouds (1995) BDRip 720p
    Релиз от HQ-ViDEO

    Детально о кино
    Русское название: Прогулка в облаках
    Русское название в мировом прокате: A Walk in the Clouds
    Создали в: 1995
    Категория жанра: драма, мелодрама
    Главный режиссер: Альфонсо Арау /Alfonso Arau/

    Актеры
    Киану Ривз /Keanu Reeves/, Айтана Санчес-Хихон /Айтана Санчес-Хихон/, Энтони Куинн /Anthony Quinn/, Джанкарло Джаннини /Giancarlo Giannini/, Анхелика Арагон /Ang?lica Arag?n/, Эванхелина Элисондо /Evangelina Elizondo/, Фредди Родригес /Freddy Rodr?guez/, Дебра Мессинг /Debra Messing/, Фебронио Коваррубиас /Febronio Covarrubias/, Роберто Уэрта /Roberto Huerta...

    Сюжет фильма

    Возвращаясь домой с войны, Пол Сатон случайно знакомится в поезде с прекрасной девушкой, которая едет домой с учебы. Разговорившись, он узнает, что она беременна от женатого профессора из колледжа, и после недолгого раздумья соглашается предстать перед ее деспотичным отцом в качестве мужа, дабы на некоторое время оттянуть момент публичного лишения ее чести. Все идет хорошо до Винного праздника, во время которого они безумно влюбляются друг в друга и вихрь чувств уносит их в невероятно чудесную страну под названием страсть. Но разум начинает побеждать, возвращая их в реальность, в которой Полу надо ехать домой к своей нелюбимой жене.

    Снималось в: США, Мексика
    Время просмотра: 01: 42: 15
    Перевод текста: Русский профессиональный, многоголосый +Русский профессиональный, двухголосый (С. Визгунов с подругой) (отдельно) + Оригинальная, английская дорожка (отдельно)
    Файл
    Кодек для видео: MKV, H.264
    Качество фильма: BDRip 720p (Source: Blu-ray Disc)
    Информация о видео: 5556 kbps; 0.262 bit/pixel; 1280 x 692; 1.85: 1; 23.976 fps
    Информация о звуке #1: AC3 Dolby Digital; 448.00 kbps, 6 Ch - MVO
    Информация о звуке #2: AC3 Dolby Digital; 448.00 kbps, 6 Ch - DVO (отдельно/скачать с Яндекс Диск)
    Информация о звуке #3: AC3 Dolby Digital; 448.00 kbps, 6 Ch - ENG (отдельно/скачать с Яндекс Диск)
    Субтитры: Русские, Английские.
    Субтитры: Русские ( полные, форсированные), Английские.(отдельно)
    Размер скачиваемого торрента: 4.37 GB
    SAMPLE/скачать с Яндекс Диск
    MediaInfo

    General
    Complete name : Progulka.V.Oblakah.1995.RUS.BDRip.720p.h264.AC3.-HQ-ViDEO.mkv
    Format : Matroska
    File size : 4.37 GiB
    Duration : 1h 42mn
    Overall bit rate : 6 125 Kbps
    Movie name : A Walk in the Clouds (1995)
    Encoded date : UTC 2011-01-18 11: 34: 12
    Writing application : mkvmerge v3.3.0 (;Language;) built on Mar 24 2010 14: 59: 24
    Writing library : libebml v0.8.0 + libmatroska v0.9.0
    Video
    ID : 1
    Format : AVC
    Format/Info : Advanced Video Codec
    Format profile : High@L4.1
    Format settings, CABAC : Yes
    Format settings, ReFrames : 6 frames
    Muxing mode : Container profile=Unknown@4.1
    Codec ID : V_MPEG4/ISO/AVC
    Duration : 1h 42mn
    Bit rate : 5 556 Kbps
    Width : 1 280 pixels
    Height : 692 pixels
    Display aspect ratio : 1.850
    Frame rate : 23.976 fps
    Resolution : 8 bits
    Colorimetry : 4: 2: 0
    Scan type : Progressive
    Bits/(Pixel*Frame) : 0.262
    Stream size : 3.96 GiB (91%)
    Title : Encoded by GYN
    Audio
    ID : 2
    Format : AC-3
    Format/Info : Audio Coding 3
    Codec ID : A_AC3
    Duration : 1h 42mn
    Bit rate mode : Constant
    Bit rate : 448 Kbps
    Channel(s) : 6 channels
    Channel positions : Front: L C R, Surround: L R, LFE
    Sampling rate : 48.0 KHz
    Stream size : 328 MiB (7%)
    Title : MVO
    Language : Russian
    Text #1
    ID : 3
    Format : UTF-8
    Codec ID : S_TEXT/UTF8
    Codec ID/Info : UTF-8 Plain Text
    Language : Russian
    Text #2
    ID : 4
    Format : UTF-8
    Codec ID : S_TEXT/UTF8
    Codec ID/Info : UTF-8 Plain Text
    Language : English





    Релиз подготовил: HQ-ViDEO
    Автор рипа: GYN

    Онлайн видео Прогулка в облаках


    Размер скачиваемого торрента: 4.37 GB (4697606993 Bytes)

    Прогулка в облаках/A Walk in the Clouds (1995) BDRip 720p от HQ-ViDEO | P
    загрузка...
    Рейтинг →
     (голосов: 1, оценка 3/5, голосовать можно 1 раз )

    Другие торренты по теме:

  • Прогулка в облаках / A Walk in the Clouds (1995) HDRip от Scarabey | Р
  • Прогулка в облаках / A Walk in the Clouds (1995) BDRip 1080p от FREEISLAND
  • Прогулка в облаках / A Walk in the Clouds (1995) BDRip 720p | P, A
  • Долгая прогулка Билли Линна в перерыве футбольного матча / Billy Lynns Long Halftime Walk (2016) CAMRip | L
  • Долгая прогулка Билли Линна в перерыве футбольного матча / Billy Lynns Long Halftime Walk (2016) CAMRip от ImperiaFilm | L
  • Долгая прогулка Билли Линна в перерыве футбольного матча / Billy Lynns Long Halftime Walk (2016) BDRip 720p | L
  • Долгая прогулка Билли Линна в перерыве футбольного матча / Billy Lynns Long Halftime Walk (2016) НDRip | L
  • Долгая прогулка Билли Линна в перерыве футбольного матча / Billy Lynns Long Halftime Walk (2016) BDRip от MegaPeer | iTunes


    • Комментарии (0):

      Информация

      Информация

        Посетители, находящиеся в группе Гости, не могут оставлять комментарии в данной новости.

        ↓ Меню



        ↓ Опрос

        А Вы добавили сайт в закладки?
        Да
        Не


        Top 10 за месяц (Фильмы)