.
Авторизация | Регистрация
Хочешь лучшие торренты? Добавь свой email!
Добавить
» » Терминатор: Генезис / Terminator: Genisys (2015) WEBRip 1080p | Фрагменты скачать торрент бесплатно




    Терминатор: Генезис / Terminator: Genisys (2015) WEBRip 1080p | Фрагменты скачать торрент бесплатно

    Опубликовал: Админ | Дата: 4-06-2015, 14:47 | Просмотров: 212


    Создали в: 2015
    Создали в: США
    Категория жанра: фантастика, боевик, триллер, приключения
    Перевод текста: Дублированный
    Главный режиссер: Алан Тейлор
    Продюсеры: Дэвид Эллисон, Дэна Голдберг, Билл Карраро
    Актеры: Эмилия Кларк, Арнольд Шварценеггер, Джай Кортни, Дж.К. Симмонс, Мэтт Смит. Джейсон Кларк, Ли Бён Хон, Сандрин Холт, Бретт Азар, Дуглас Смит
    Описание фильма:
    Когда Джон Коннор, лидер сопротивления, посылает сержанта Кайла Риза назад в 1984 год, чтобы защитить Сару Коннор и спасти будущее, неожиданный поворот событий создает разлом во времени. Сержант Риз оказывается в новой, незнакомой версии прошлого, где он встречает неожиданных союзников, в том числе Терминатора, новых опасных врагов, и новую миссию: изменить будущее…
    Дата мировой премьеры: 25 июня 2015
    Дата российской премьеры: 2 июля 2015

    Время просмотра: 00: 00: 55 + 00: 01: 00
    Качество фильма видео: WEBRip
    Информация о видеокодек: MPEG-4 AVC/H.264
    Битрейт видео: 2486 Кбит/сек, 2338 Кбит/сек
    Размер скачиваемого торрента кадра: 1920x1080
    Информация о звукекодек: AC3 5.1
    Битрейт аудио: 851 Кбит/сек, 923 Кбит/сек
    MediaInfo:

    Общее
    Полное имя : Терминатор? Генезис Фрагменты (2015)Терминатор? Генезис Фрагмент (2015).mp4
    Формат : MPEG-4
    Профиль формата : Base Media
    Идентификатор кодека : isom
    Размер файла : 17, 3 Мбайт
    Продолжительность : 55 с.
    Общий поток : 2614 Кбит/сек
    Программа кодирования : Lavf56.19.100
    Видео
    Идентификатор : 1
    Формат : AVC
    Формат/Информация : Advanced Video Codec
    Профиль формата : High@L4
    Параметр CABAC формата : Да
    Параметр ReFrames формата : 2 кадра
    Идентификатор кодека : avc1
    Идентификатор кодека/Информация : Advanced Video Coding
    Продолжительность : 55 с.
    Битрейт : 2486 Кбит/сек
    Ширина : 1920 пикселей
    Высота : 1080 пикселей
    Соотношение сторон : 16: 9
    Режим частоты кадров : Постоянный
    Частота кадров : 25, 000 кадров/сек
    Цветовое пространство : YUV
    Субдискретизация насыщенности : 4: 2: 0
    Битовая глубина : 8 бит
    Тип развёртки : Прогрессивная
    Бит/(Пиксели*Кадры) : 0.048
    Размер потока : 16, 4 Мбайт (95%)
    Аудио
    Идентификатор : 2
    Формат : AAC
    Формат/Информация : Advanced Audio Codec
    Профиль формата : LC
    Идентификатор кодека : 40
    Продолжительность : 55 с.
    Вид битрейта : Постоянный
    Битрейт : 126 Кбит/сек
    Каналы : 2 канала
    Расположение каналов : Front: L R
    Частота : 44, 1 КГц
    Метод сжатия : С потерями
    Размер потока : 851 Кбайт (5%)
    Общее
    Полное имя : Терминатор? Генезис Фрагменты (2015)Терминатор? Генезис Фрагмент 2 (2015).mp4
    Формат : MPEG-4
    Профиль формата : Base Media
    Идентификатор кодека : isom
    Размер файла : 17, 7 Мбайт
    Продолжительность : 1 м. 0 с.
    Общий поток : 2465 Кбит/сек
    Программа кодирования : Lavf56.19.100
    Видео
    Идентификатор : 1
    Формат : AVC
    Формат/Информация : Advanced Video Codec
    Профиль формата : High@L4
    Параметр CABAC формата : Да
    Параметр ReFrames формата : 2 кадра
    Идентификатор кодека : avc1
    Идентификатор кодека/Информация : Advanced Video Coding
    Продолжительность : 1 м. 0 с.
    Битрейт : 2338 Кбит/сек
    Ширина : 1920 пикселей
    Высота : 1080 пикселей
    Соотношение сторон : 16: 9
    Режим частоты кадров : Постоянный
    Частота кадров : 25, 000 кадров/сек
    Цветовое пространство : YUV
    Субдискретизация насыщенности : 4: 2: 0
    Битовая глубина : 8 бит
    Тип развёртки : Прогрессивная
    Бит/(Пиксели*Кадры) : 0.045
    Размер потока : 16, 8 Мбайт (95%)
    Аудио
    Идентификатор : 2
    Формат : AAC
    Формат/Информация : Advanced Audio Codec
    Профиль формата : LC
    Идентификатор кодека : 40
    Продолжительность : 1 м. 0 с.
    Вид битрейта : Постоянный
    Битрейт : 126 Кбит/сек
    Каналы : 2 канала
    Расположение каналов : Front: L R
    Частота : 44, 1 КГц
    Метод сжатия : С потерями
    Размер потока : 923 Кбайт (5%)

    Скриншоты



    Скриншоты



    Залил: Jokerzv

    Онлайн видео Терминатор: Генезис


    Размер скачиваемого торрента: 34.99 MB (36694326 Bytes)

    Терминатор: Генезис/Terminator: Genisys (2015) WEBRip 1080p | Фрагменты
    загрузка...
    Рейтинг →
     (голосов: 1, оценка 3/5, голосовать можно 1 раз )

    Другие торренты по теме:

  • Терминатор: Генезис / Terminator: Genisys (2015) DCPrip | 2K, Hi10P | Трейлеры
  • Терминатор: Генезис (2015) HDRip
  • Терминатор: Генезис / Terminator: Genisys (2015) WEBRip 1080p | Трейлер
  • Терминатор: Генезис / Terminator: Genisys (2015) WEBRip 1080p | Фрагменты
  • OST - Терминатор: Генезис / Terminator: Genisys (2015) FLAC
  • Терминатор: Генезис / Terminator: Genisys (2015) CAMRip
  • Терминатор: Генезис / Terminator: Genisys (2015) CAMRip
  • Терминатор: Генезис / Terminator: Genisys (2015) HDTVRip | Звук с TS


    • Комментарии (0):

      Информация

      Информация

        Посетители, находящиеся в группе Гости, не могут оставлять комментарии в данной новости.

        ↓ Меню



        ↓ Опрос

        А Вы добавили сайт в закладки?
        Да
        Не


        Top 10 за месяц (Фильмы)