.
Авторизация | Регистрация
Хочешь лучшие торренты? Добавь свой email!
Добавить
» » Психо / Psycho (1960) BDRip 720p от HQ-ViDEO | P скачать торрент бесплатно




    Психо / Psycho (1960) BDRip 720p от HQ-ViDEO | P скачать торрент бесплатно

    Опубликовал: Админ | Дата: 4-06-2015, 14:47 | Просмотров: 98

    Психо/Psycho (1960) BDRip 720p
    Релиз от HQ-ViDEO

    Детально о кино
    Русское название: Психо
    Русское название в мировом прокате: Psycho
    Создали в: 1960
    Категория жанра: триллер, детектив, ужасы
    Главный режиссер: Альфред Хичкок /Alfred Hitchcock/

    Актеры
    Энтони Перкинс /Anthony Perkins/, Вера Майлз /Vera Miles/, Джон Гэвин /John Gavin/, Джанет Ли /Janet Leigh/, Мартин Болсам /Martin Balsam/, Джон МакИнтайр /John McIntire/, Саймон Оукленд /Simon Oakland/, Фрэнк Альбертсон /Frank Albertson/...

    Сюжет фильма

    Девушка, недовольная романом с разведенным мужчиной, уделяющим ей внимание только наездами, крадет на работе крупную сумму денег и в спешке бежит из города. В мотеле, где она остановилась на ночь, ей приходится столкнуться с его молодым владельцем...

    Снималось в: США
    Время просмотра: 01: 48: 51
    Перевод текста: Русский профессиональный, многоголосый +Авторский, одноголосый (Ю. Живов) (отдельно) + Оригинальная, английская дорожка (отдельно)
    Файл
    Кодек для видео: MKV, H.264
    Качество фильма: BDRip 720p (Source: Blu-ray Disc)
    Информация о видео: 5183 kbps; 0.244 bit/pixel; 1280 x 692; 1.85: 1; 23.976 fps
    Информация о звуке #1: AC3 Dolby Digital; 448.00 kbps, 6 Ch - MVO
    Информация о звуке #2: AC3 Dolby Digital; 448.00 kbps, 6 Ch - AVO Zhivov (отдельно/скачать с Яндекс Диск)
    Информация о звуке #3: AC3 Dolby Digital; 448.00 kbps, 6 Ch - ENG (отдельно/скачать с Яндекс Диск)
    Субтитры: Русские, Английские.
    Размер скачиваемого торрента: 4.37 GB
    SAMPLE/скачать с Яндекс Диск
    MediaInfo

    General
    Complete name : Psiho.1960.RUS.BDRip.720p.h264.AC3.-HQ-ViDEO.mkv
    Format : Matroska
    File size : 4.37 GiB
    Duration : 1h 48mn
    Overall bit rate : 5 745 Kbps
    Movie name : Psycho (1960)
    Encoded date : UTC 2011-02-17 16: 00: 53
    Writing application : mkvmerge v3.3.0 (;Language;) built on Mar 24 2010 14: 59: 24
    Writing library : libebml v0.8.0 + libmatroska v0.9.0
    Video
    ID : 1
    Format : AVC
    Format/Info : Advanced Video Codec
    Format profile : High@L4.1
    Format settings, CABAC : Yes
    Format settings, ReFrames : 6 frames
    Codec ID : V_MPEG4/ISO/AVC
    Duration : 1h 48mn
    Bit rate mode : Variable
    Bit rate : 5 183 Kbps
    Width : 1 280 pixels
    Height : 692 pixels
    Display aspect ratio : 1.850
    Frame rate : 23.976 fps
    Color space : YUV
    Chroma subsampling : 4: 2: 0
    Bit depth : 8 bits
    Scan type : Progressive
    Bits/(Pixel*Frame) : 0.244
    Stream size : 3.94 GiB (90%)
    Title : Encoded by GYN
    Audio
    ID : 2
    Format : AC-3
    Format/Info : Audio Coding 3
    Mode extension : CM (complete main)
    Codec ID : A_AC3
    Duration : 1h 48mn
    Bit rate mode : Constant
    Bit rate : 448 Kbps
    Channel(s) : 6 channels
    Channel positions : Front: L C R, Side: L R, LFE
    Sampling rate : 48.0 KHz
    Bit depth : 16 bits
    Stream size : 349 MiB (8%)
    Title : MVO (SomeWAX)
    Language : Russian
    Text #1
    ID : 3
    Format : UTF-8
    Codec ID : S_TEXT/UTF8
    Codec ID/Info : UTF-8 Plain Text
    Language : Russian
    Text #2
    ID : 4
    Format : UTF-8
    Codec ID : S_TEXT/UTF8
    Codec ID/Info : UTF-8 Plain Text
    Language : English





    Релиз подготовил: HQ-ViDEO
    Автор рипа: GYN
    Размер скачиваемого торрента: 4.37 GB (4690455349 Bytes)

    Психо/Psycho (1960) BDRip 720p от HQ-ViDEO | P
    загрузка...
    Рейтинг →
     (голосов: 1, оценка 5/5, голосовать можно 1 раз )

    Другие торренты по теме:

  • Психо-пасс / Psycho-pass (2012) HDTVRIp | AniFilm
  • Психо / Психоз / Psicosis / Psycho (1960) BDRip 720p - MediaClub
  • Психо 4: Начало / Psycho IV: The Beginning (1990) DVDRip | А
  • Психо 3 / Psycho 3 (1986) DVDRip | А
  • Психо 2 / Psycho 2 (1983) DVDRip | А
  • Психо-пасс / Psycho-pass (2012) HDTVRIp | AniFilm
  • Психо-пасс / Psycho-pass (2012) BDRip 720p | AniFilm
  • Психо 3 / Psycho III (1986) Blu-Ray Remux 1080p от MediaClub | L1 скачать через торрент бесплатно


    • Комментарии (0):

      Информация

      Информация

        Посетители, находящиеся в группе Гости, не могут оставлять комментарии в данной новости.

        ↓ Меню



        ↓ Опрос

        А Вы добавили сайт в закладки?
        Да
        Не


        Top 10 за месяц (Фильмы)