.
Авторизация | Регистрация
Хочешь лучшие торренты? Добавь свой email!
Добавить
» » Гнев / Tokarev (2014) BDRip 720p от KinoGadget | iPad скачать торрент бесплатно




    Гнев / Tokarev (2014) BDRip 720p от KinoGadget | iPad скачать торрент бесплатно

    Опубликовал: Админ | Дата: 3-06-2015, 03:10 | Просмотров: 105


    Создали в: 2014
    Снималось в: США, Франция
    Категория жанра: боевик, триллер, криминал
    Время просмотра: 01: 38: 26
    Перевод текста: Дублированный
    Главный режиссер: Пако Кабесас

    Актеры
    Николас Кейдж, Рэйчел Николс, Макс Райан, Майкл МакГрэйди, Петер Стормаре, Павел Личникофф, Патрис Колс, Макс Фаулер, Обри Пиплз, Джек Фалахи, Уэстон Кейдж, Дэнни Гловер, Рон Гоулман, Майкл Пападжон, Амир Занди, Джон Даннелли, Гаррисон Тайлер, Пол Сэмпсон, Кевин Лавелл Янг, Елена Санчес
    Описание: Еще несколько лет назад Пол Магуаер раскаялся в былых преступлениях. Теперь он — честный бизнесмен и заботливый семьянин. Но криминальное прошлое не отпускает его. Однажды неизвестные врываются в дом Магуаера и жестоко убивают его дочь. Месть отца будет беспощадной…

    Информация о видео кодек: MPEG-4 AVC
    Качество фильма: BDRip 720p
    Параметры Видео: 1280x544, 23.976 fps; ~2 187 kbps avg
    Параметры Звука: 44.1 KHz, AAC, ~150.00 kbps avg, 2ch
    Тип видео: mp4
    Автор рипа:
    Релиз-группа:

    Meta Tags


    MI
    General
    Complete name : E: Gnev 2014.D.BDRip.720p_KinoGadget.mp4
    Format : MPEG-4
    Format profile : Base Media
    Codec ID : isom
    File size : 1.61 GiB
    Duration : 1h 38mn
    Overall bit rate mode : Variable
    Overall bit rate : 2 345 Kbps
    Movie name : Гнев/Токарев
    Performer : Пако Кабесас
    Genre : Action, Crime, Thriller
    ContentType : Short Film
    Recorded date : 2014
    Encoded date : UTC 2015-06-02 18: 27: 52
    Tagged date : UTC 2015-06-02 18: 32: 54
    Cover : Yes
    LongDeion : Еще несколько лет назад Пол Магуаер раскаялся в былых преступлениях. Теперь он — честный бизнесмен и заботливый семьянин. Но криминальное прошлое не отпускает его. Однажды неизвестные врываются в дом Магуаера и жестоко убивают его дочь. Месть отца будет беспощадной…
    HDVideo : Yes
    Video
    ID : 1
    Format : AVC
    Format/Info : Advanced Video Codec
    Format profile : High@L4.1
    Format settings, CABAC : Yes
    Format settings, ReFrames : 11 frames
    Codec ID : avc1
    Codec ID/Info : Advanced Video Coding
    Duration : 1h 38mn
    Bit rate : 2 187 Kbps
    Maximum bit rate : 11.8 Mbps
    Width : 1 280 pixels
    Height : 544 pixels
    Display aspect ratio : 2.35: 1
    Frame rate mode : Constant
    Frame rate : 23.976 fps
    Color space : YUV
    Chroma subsampling : 4: 2: 0
    Bit depth : 8 bits
    Scan type : Progressive
    Bits/(Pixel*Frame) : 0.131
    Stream size : 1.50 GiB (93%)
    Writing library : x264 core 146 r2538 121396c
    Encoding settings : cabac=1/ref=11/deblock=1: -1: -1/analyse=0x3: 0x133/me=umh/subme=9/psy=1/psy_rd=1.00: 0.00/mixed_ref=1/me_range=24/chroma_me=1/trellis=2/8x8dct=1/cqm=0/deadzone=21, 11/fast_pskip=1/chroma_qp_offset=-2/threads=3/lookahead_threads=1/sliced_threads=0/nr=0/decimate=1/interlaced=0/bluray_compat=0/constrained_intra=0/bframes=4/b_pyramid=2/b_adapt=2/b_bias=0/direct=3/weightb=1/open_gop=0/weightp=2/keyint=240/keyint_min=23/scenecut=40/intra_refresh=0/rc_lookahead=60/rc=crf/mbtree=1/crf=21.0/qcomp=0.60/qpmin=0/qpmax=69/qpstep=4/ip_ratio=1.40/aq=1: 1.70
    Encoded date : UTC 2015-06-02 11: 53: 25
    Tagged date : UTC 2015-06-02 18: 28: 42
    Audio
    ID : 2
    Format : AAC
    Format/Info : Advanced Audio Codec
    Format profile : LC
    Codec ID : 40
    Duration : 1h 38mn
    Bit rate mode : Variable
    Bit rate : 150 Kbps
    Maximum bit rate : 212 Kbps
    Channel count : 2 channels
    Channel positions : Front: L R
    Sampling rate : 44.1 KHz
    Compression mode : Lossy
    Stream size : 105 MiB (6%)
    Language : Russian
    Encoded date : UTC 2015-06-02 18: 28: 30
    Tagged date : UTC 2015-06-02 18: 28: 42

    Скриншоты


    Залил: KinoGadget
    Размер скачиваемого торрента: 1.61 GB (1731230618 Bytes)

    Гнев/Tokarev (2014) BDRip 720p от KinoGadget | iPad
    загрузка...
    Рейтинг →
     (голосов: 1, оценка 3/5, голосовать можно 1 раз )

    Другие торренты по теме:

  • Гнев / Man on Fire (2004) HDRip от Scarabey | D Sub
  • Агирре, Гнев Божий / Aguirre, der Zorn Gottes (1972) BDRip-AVC от Тorrent-Хzona
  • Энчантия: Гнев Королевы Фениксов / Enchantia: Wrath of the Phoenix Queen CE (2013) PC
  • OST - Гнев / Man on Fire (2004) MP3
  • Звездный путь 2: Гнев Хана / Star Trek: The Wrath of Khan (1982) BDRip от HQCLUB
  • Сокрытое: Гнев Азазеля / Sembunyi: Amukan Azazil (2012) DVDRip | L
  • Гнев / Man on Fire (2004) BDRip 720p от HQ-ViDEO
  • Гнев / Man on Fire (2004) BDRip 1080p


    • Комментарии (0):

      Информация

      Информация

        Посетители, находящиеся в группе Гости, не могут оставлять комментарии в данной новости.

        ↓ Меню



        ↓ Опрос

        А Вы добавили сайт в закладки?
        Да
        Не


        Top 10 за месяц (Фильмы)