.
Авторизация | Регистрация
Хочешь лучшие торренты? Добавь свой email!
Добавить
» » Последний охотник на ведьм / The Last Witch Hunter (2015) WEBRip 1080p | Трейлер скачать торрент бесплатно




    Последний охотник на ведьм / The Last Witch Hunter (2015) WEBRip 1080p | Трейлер скачать торрент бесплатно

    Опубликовал: Админ | Дата: 2-06-2015, 18:02 | Просмотров: 587


    Создали в: 2015
    Создали в: США
    Категория жанра: фэнтези, боевик, приключения
    Перевод текста: Дублированный
    Главный режиссер: Брек Эйснер
    Продюсеры: Марк Кантон, Берни Голдманн, Адам Голдворм
    Актеры: Вин Дизель, Роуз Лесли, Элайджа Вуд, Оулавюр Дарри Оулавссон, Рина Оуэн, Юли Энгельбрехт, Джозеф Гилган, Исаак Де Банколе, Армани Джексон, Майкл Халсли
    Описание трейлера:
    Официальный русский тизер-трейлер фильма Последний охотник на ведьм 2015 (дублированный)
    Описание фильма:
    Сюжет развернется вокруг бессмертного охотника на ведьм, объединяющегося с влиятельной молодой колдуньей, чтобы помешать шабашу ведьм заразить чумой все человечество.
    Дата мировой премьеры: 15 октября 2015
    Дата российской премьеры: 15 октября 2015

    Время просмотра: 00: 02: 27
    Качество фильма видео: WEBRip
    Информация о видеокодек: MPEG-4 AVC/H.264
    Битрейт видео: 2426 Кбит/сек
    Размер скачиваемого торрента кадра: 1920x800
    Информация о звукекодек: AC3 2.0
    Битрейт аудио: 126 Кбит/сек
    MediaInfo:

    Общее
    Полное имя : Последний охотник на ведьм Русский Тизер-Трейлер (2015).mp4
    Формат : MPEG-4
    Профиль формата : Base Media
    Идентификатор кодека : isom
    Размер файла : 26, 0 Мбайт
    Продолжительность : 1 м. 25 с.
    Общий поток : 2555 Кбит/сек
    Программа кодирования : Lavf56.19.100
    Видео
    Идентификатор : 1
    Формат : AVC
    Формат/Информация : Advanced Video Codec
    Профиль формата : High@L4
    Параметр CABAC формата : Да
    Параметр ReFrames формата : 2 кадра
    Идентификатор кодека : avc1
    Идентификатор кодека/Информация : Advanced Video Coding
    Продолжительность : 1 м. 25 с.
    Битрейт : 2426 Кбит/сек
    Ширина : 1920 пикселей
    Высота : 800 пикселей
    Соотношение сторон : 2, 40: 1
    Режим частоты кадров : Постоянный
    Частота кадров : 24, 000 кадра/сек
    Цветовое пространство : YUV
    Субдискретизация насыщенности : 4: 2: 0
    Битовая глубина : 8 бит
    Тип развёртки : Прогрессивная
    Бит/(Пиксели*Кадры) : 0.066
    Размер потока : 24, 6 Мбайт (95%)
    Аудио
    Идентификатор : 2
    Формат : AAC
    Формат/Информация : Advanced Audio Codec
    Профиль формата : LC
    Идентификатор кодека : 40
    Продолжительность : 1 м. 25 с.
    Вид битрейта : Постоянный
    Битрейт : 126 Кбит/сек
    Каналы : 2 канала
    Расположение каналов : Front: L R
    Частота : 44, 1 КГц
    Метод сжатия : С потерями
    Размер потока : 1, 28 Мбайт (5%)

    Скриншоты



    Скриншоты



    Залил: Jokerzv

    Онлайн видео Последний охотник на ведьм


    Размер скачиваемого торрента: 25.96 MB (27221783 Bytes)

    Последний охотник на ведьм/The Last Witch Hunter (2015) WEBRip 1080p | Трейлер
    загрузка...
    Рейтинг →
     (голосов: 1, оценка 5/5, голосовать можно 1 раз )

    Другие торренты по теме:

  • Последний охотник / Hunter Prey (2010) HDRip-AVC от ExKinoRay
  • Последний охотник на ведьм / The Last Witch Hunter (2015) WEBRip 1080p Трейлер | L
  • Последний охотник на ведьм (2015) дублированный
  • Последний охотник на ведьм / The Last Witch Hunter (2015) CAMRip
  • Последний охотник на ведьм / The Last Witch Hunter (2015) WEB-DL 720p | iTunes
  • Последний охотник на ведьм / The Last Witch Hunter (2015) WEB-DLRip-AVC от ExKinoRay | iTunes
  • Последний охотник на ведьм / The Last Witch Hunter (2015) HDRip | КПК | iTunes
  • Последний охотник на ведьм / The Last Witch Hunter (2015) BDRip от AleksSin | D | iTunes


    • Комментарии (0):

      Информация

      Информация

        Посетители, находящиеся в группе Гости, не могут оставлять комментарии в данной новости.

        ↓ Меню



        ↓ Опрос

        А Вы добавили сайт в закладки?
        Да
        Не


        Top 10 за месяц (Фильмы)