.
Авторизация | Регистрация
Хочешь лучшие торренты? Добавь свой email!
Добавить
» » Робот по имени Чаппи / Chappie (2015) BDRip 720p от KinoGadget | iPad скачать торрент бесплатно




    Робот по имени Чаппи / Chappie (2015) BDRip 720p от KinoGadget | iPad скачать торрент бесплатно

    Опубликовал: Админ | Дата: 2-06-2015, 03:07 | Просмотров: 62


    Создали в: 2015
    Снималось в: США, Мексика, ЮАР
    Категория жанра: фантастика, боевик, триллер
    Время просмотра: 02: 00: 20
    Перевод текста: Дублированный
    Главный режиссер: Нил Бломкамп

    Актеры
    Шарлто Копли, Дев Патель, Ниндзя, Йоланди Фиссер, Хосе Пабло Кантилльо, Хью Джекман, Сигурни Уивер, Брэндон Оре, Джонни Селема, Андерсон Купер, Морис Карпеде, Джейсон Коуп, Кевин Отто, Крис Шилдс, Билл Мэрчент, Роберт Хоббс, Марк К. Куслу, Шерлдон Марема, Шахид Хаджи, Дэвид Давадосс
    Описание: Чаппи — вундеркинд. Как и любой другой ребенок, он попадает под влияние своего окружения, и только его сердце и душа помогут ему найти свой путь. Но есть одна вещь, которая делает Чаппи непохожим на всех остальных: он — первый робот, способный чувствовать и думать.

    Информация о видео кодек: MPEG-4 AVC
    Качество фильма: BDRip 720p
    Параметры Видео: 1280x534, 23.976 fps; ~2 175 kbps avg
    Параметры Звука: 44.1 KHz, AAC, ~150.00 kbps avg, 2ch
    Тип видео: mp4
    Автор рипа:
    Релиз-группа:

    Meta Tags


    MI
    General
    Complete name : E: Robot_po_imeni_Chappi.2015.D.BDRip.720p_KinoGadget.mp4
    Format : MPEG-4
    Format profile : Base Media
    Codec ID : isom
    File size : 1.96 GiB
    Duration : 2h 0mn
    Overall bit rate mode : Variable
    Overall bit rate : 2 333 Kbps
    Movie name : Робот по имени Чаппи
    Performer : Нил Бломкамп
    Genre : Action, Thriller
    ContentType : Short Film
    Recorded date : 2015
    Encoded date : UTC 2015-06-01 15: 38: 25
    Tagged date : UTC 2015-06-01 15: 58: 12
    Cover : Yes
    ContentRating : mpaa|R|400|
    LongDeion : Чаппи — вундеркинд. Как и любой другой ребенок, он попадает под влияние своего окружения, и только его сердце и душа помогут ему найти свой путь. Но есть одна вещь, которая делает Чаппи непохожим на всех остальных: он — первый робот, способный чувствовать и думать.
    HDVideo : Yes
    Video
    ID : 1
    Format : AVC
    Format/Info : Advanced Video Codec
    Format profile : High@L4.1
    Format settings, CABAC : Yes
    Format settings, ReFrames : 11 frames
    Codec ID : avc1
    Codec ID/Info : Advanced Video Coding
    Duration : 2h 0mn
    Bit rate : 2 175 Kbps
    Maximum bit rate : 16.1 Mbps
    Width : 1 280 pixels
    Height : 534 pixels
    Display aspect ratio : 2.40: 1
    Frame rate mode : Constant
    Frame rate : 23.976 fps
    Color space : YUV
    Chroma subsampling : 4: 2: 0
    Bit depth : 8 bits
    Scan type : Progressive
    Bits/(Pixel*Frame) : 0.133
    Stream size : 1.83 GiB (93%)
    Writing library : x264 core 146 r2538 121396c
    Encoding settings : cabac=1/ref=11/deblock=1: -1: -1/analyse=0x3: 0x133/me=umh/subme=9/psy=1/psy_rd=1.00: 0.00/mixed_ref=1/me_range=24/chroma_me=1/trellis=2/8x8dct=1/cqm=0/deadzone=21, 11/fast_pskip=1/chroma_qp_offset=-2/threads=3/lookahead_threads=1/sliced_threads=0/nr=0/decimate=1/interlaced=0/bluray_compat=0/constrained_intra=0/bframes=4/b_pyramid=2/b_adapt=2/b_bias=0/direct=3/weightb=1/open_gop=0/weightp=2/keyint=240/keyint_min=23/scenecut=40/intra_refresh=0/rc_lookahead=60/rc=crf/mbtree=1/crf=21.0/qcomp=0.60/qpmin=0/qpmax=69/qpstep=4/ip_ratio=1.40/aq=1: 1.50
    Encoded date : UTC 2015-05-31 22: 42: 13
    Tagged date : UTC 2015-06-01 15: 39: 09
    Audio
    ID : 2
    Format : AAC
    Format/Info : Advanced Audio Codec
    Format profile : LC
    Codec ID : 40
    Duration : 2h 0mn
    Bit rate mode : Variable
    Bit rate : 150 Kbps
    Maximum bit rate : 218 Kbps
    Channel count : 2 channels
    Channel positions : Front: L R
    Sampling rate : 44.1 KHz
    Compression mode : Lossy
    Stream size : 129 MiB (6%)
    Language : Russian
    Encoded date : UTC 2015-06-01 15: 38: 55
    Tagged date : UTC 2015-06-01 15: 39: 09

    Скриншоты


    Залил: KinoGadget

    Онлайн видео Робот по имени Чаппи


    Размер скачиваемого торрента: 1.96 GB (2104953714 Bytes)

    Робот по имени Чаппи/Chappie (2015) BDRip 720p от KinoGadget | iPad
    загрузка...
    Рейтинг →
     (голосов: 1, оценка 5/5, голосовать можно 1 раз )

    Другие торренты по теме:

  • Робот по имени Чаппи / Chappie (2015) CAMRip
  • Робот по имени Чаппи / Chappie (2015) TS *PROPER*
  • Робот по имени Чаппи / Chappie (2015) TS
  • Робот по имени Чаппи / Chappie (2015) WEB-DL 720p | iTunes
  • Робот по имени Чаппи / Chappie (2015) WEB-DLRip от Scarabey | iTunes
  • Робот по имени Чаппи / Chappie (2015) WEB-DLRip-AVC | iTunes
  • Робот по имени Чаппи / Chappie (2015) HDRip | iTunes
  • Робот по имени Чаппи / Chappie (2015) BDRip 720p | iTunes


    • Комментарии (0):

      Информация

      Информация

        Посетители, находящиеся в группе Гости, не могут оставлять комментарии в данной новости.

        ↓ Меню



        ↓ Опрос

        А Вы добавили сайт в закладки?
        Да
        Не


        Top 10 за месяц (Фильмы)