.
Авторизация | Регистрация
Хочешь лучшие торренты? Добавь свой email!
Добавить
» » Тренер / McFarland, USA (2015) BDRip 1080p | L2 скачать торрент бесплатно




    Тренер / McFarland, USA (2015) BDRip 1080p | L2 скачать торрент бесплатно

    Опубликовал: Админ | Дата: 2-06-2015, 00:05 | Просмотров: 82



    Детально о кино
    Русское название: Тренер
    Русское название в мировом прокате: McFarland, USA
    Создали в: 2015
    Категория жанра: драма, спорт
    Главный режиссер: Ники Каро

    Актеры
    Кевин Костнер, Рамиро Родригес, Карлос Праттс, Джонни Ортиз, Рафаэль Мартинез, Гектор Дюран, Серджо Авелар, Майкл Агеро, Диана-Мария Рива, Омар Лейва


    Сюжет фильма
    История, основана на реальных событиях. В начале девяностых, в маленьком городке МакФарланд, профессиональный тренер создает команду по легкой атлетике из обычных сорванцов и мелких хулиганов, и приводит эту команду до вершины спортивного Олимпа. Население МакФарланда - это 90 процентов латиноамериканцы, которые приехали в США под видом переселенцев и беженцев...



    Снималось в: США
    Время просмотра: 02: 08: 56
    Перевод текста: Любительский (двухголосый, закадровый)

    Файл
    Качество фильма: BDRip 1080p
    Тип видео: MKV
    Информация о видео: MPEG4/AVC, 14.5 Мбит/сек, 1920х804 (2.40: 1), 23.976 кадра/сек
    Информация о звуке 1: AC3, 2 канала, 384 Кбит/сек | Русский
    Информация о звуке 2: DTS, 6 каналов, 1509 Кбит/сек | Английский
    Субтитры: Английские (Full, SDH)
    Навигация по главам: Есть

    MediaInfo:
    Общее
    Уникальный идентификатор : 185579420628444931779398506402821659669 (0x8B9D4BDBF5210F0BA9B9E2C89E135C15)
    Полное имя : McFarland.USA. (2015) BDRip 1080p.mkv
    Формат : Matroska
    Версия формата : Version 2
    Размер файла : 14, 8 Гбайт
    Продолжительность : 2 ч. 9 м.
    Общий поток : 16, 4 Мбит/сек
    Название фильма : McFarland.USA. 2015
    Дата кодирования : UTC 2015-06-01 10: 34: 07
    Программа кодирования : mkvmerge v5.8.0 (;No Sleep/Pillow;) built on Sep 2 2012 15: 37: 04
    Библиотека кодирования : libebml v1.2.3 + libmatroska v1.3.0

    Видео
    Идентификатор : 1
    Формат : AVC
    Формат/Информация : Advanced Video Codec
    Профиль формата : High@L4.1
    Параметр CABAC формата : Да
    Параметр ReFrames формата : 5 кадров
    Идентификатор кодека : V_MPEG4/ISO/AVC
    Продолжительность : 2 ч. 9 м.
    Битрейт : 14, 5 Мбит/сек
    Ширина : 1920 пикселей
    Высота : 804 пикселя
    Соотношение сторон : 2, 40: 1
    Режим частоты кадров : Постоянный
    Частота кадров : 23, 976 кадра/сек
    Цветовое пространство : YUV
    Субдискретизация насыщенности : 4: 2: 0
    Битовая глубина : 8 бит
    Тип развёртки : Прогрессивная
    Бит/(Пиксели*Кадры) : 0.392
    Размер потока : 12, 8 Гбайт (86%)
    Заголовок : WiKi
    Библиотека кодирования : x264 core 142 r2431+42 c69a006 tMod 8-bit@all X86_64
    Настройки программы : cabac=1/ref=5/deblock=1: -3: -3/analyse=0x3: 0x133/me=umh/subme=11/psy=1/fade_compensate=0.00/psy_rd=1.05: 0.10/mixed_ref=1/me_range=64/chroma_me=1/trellis=2/8x8dct=1/cqm=0/deadzone=21, 11/fast_pskip=0/chroma_qp_offset=-3/threads=12/lookahead_threads=2/sliced_threads=0/nr=0/decimate=0/interlaced=0/bluray_compat=0/constrained_intra=0/fgo=0/bframes=8/b_pyramid=2/b_adapt=2/b_bias=0/direct=3/weightb=1/open_gop=0/weightp=2/keyint=250/keyint_min=23/scenecut=40/intra_refresh=0/rc_lookahead=120/rc=2pass/mbtree=1/bitrate=14500/ratetol=1.0/qcomp=0.75/qpmin=0: 0: 0/qpmax=69: 69: 69/qpstep=4/cplxblur=20.0/qblur=0.5/vbv_maxrate=50000/vbv_bufsize=50000/nal_hrd=none/filler=0/ip_ratio=1.40/aq=1: 0.80/aq-sensitivity=10.00/aq-factor=1.00: 1.00: 1.00/aq2=0/aq3=0
    Язык : English
    Default : Да
    Forced : Нет
    Коэффициенты матрицы : BT.709

    Аудио #1
    Идентификатор : 2
    Формат : AC-3
    Формат/Информация : Audio Coding 3
    Расширение режима : CM (complete main)
    Параметр Endianness формата : Big
    Идентификатор кодека : A_AC3
    Продолжительность : 2 ч. 9 м.
    Вид битрейта : Постоянный
    Битрейт : 384 Кбит/сек
    Каналы : 2 канала
    Расположение каналов : Front: L R
    Частота : 48, 0 КГц
    Битовая глубина : 16 бит
    Метод сжатия : С потерями
    Размер потока : 355 Мбайт (2%)
    Заголовок : L2
    Язык : Russian
    Default : Да
    Forced : Нет

    Аудио #2
    Идентификатор : 3
    Формат : DTS
    Формат/Информация : Digital Theater Systems
    Режим : 16
    Параметр Endianness формата : Big
    Идентификатор кодека : A_DTS
    Продолжительность : 2 ч. 9 м.
    Вид битрейта : Постоянный
    Битрейт : 1509 Кбит/сек
    Каналы : 6 каналов
    Расположение каналов : Front: L C R, Side: L R, LFE
    Частота : 48, 0 КГц
    Битовая глубина : 24 бит
    Метод сжатия : С потерями
    Размер потока : 1, 36 Гбайт (9%)
    Заголовок : Original
    Язык : English
    Default : Нет
    Forced : Нет

    Текст #1
    Идентификатор : 4
    Формат : UTF-8
    Идентификатор кодека : S_TEXT/UTF8
    Идентификатор кодека/Информация : UTF-8 Plain Text
    Заголовок : Full
    Язык : English
    Default : Нет
    Forced : Нет

    Текст #2
    Идентификатор : 5
    Формат : UTF-8
    Идентификатор кодека : S_TEXT/UTF8
    Идентификатор кодека/Информация : UTF-8 Plain Text
    Заголовок : SDH
    Язык : English
    Default : Нет
    Forced : Нет

    Меню
    00: 00: 00.000 : en: 00: 00: 00.000
    00: 05: 48.348 : en: 00: 05: 48.348
    00: 08: 58.538 : en: 00: 08: 58.538
    00: 13: 24.846 : en: 00: 13: 24.846
    00: 15: 26.676 : en: 00: 15: 26.676
    00: 19: 21.369 : en: 00: 19: 21.369
    00: 22: 19.296 : en: 00: 22: 19.296
    00: 25: 50.758 : en: 00: 25: 50.758
    00: 34: 41.454 : en: 00: 34: 41.454
    00: 41: 11.177 : en: 00: 41: 11.177
    00: 43: 13.841 : en: 00: 43: 13.841
    00: 48: 04.924 : en: 00: 48: 04.924
    00: 55: 29.952 : en: 00: 55: 29.952
    00: 57: 24.316 : en: 00: 57: 24.316
    01: 01: 23.096 : en: 01: 01: 23.096
    01: 06: 03.459 : en: 01: 06: 03.459
    01: 10: 50.997 : en: 01: 10: 50.997
    01: 14: 02.855 : en: 01: 14: 02.855
    01: 18: 48.557 : en: 01: 18: 48.557
    01: 28: 10.535 : en: 01: 28: 10.535
    01: 37: 34.849 : en: 01: 37: 34.849
    01: 40: 24.644 : en: 01: 40: 24.644
    01: 45: 38.082 : en: 01: 45: 38.082
    01: 53: 12.744 : en: 01: 53: 12.744
    02: 02: 03.775 : en: 02: 02: 03.775
    02: 04: 34.509 : en: 02: 04: 34.509



    Релиз подготовил:

    Онлайн видео Тренер


    Размер скачиваемого торрента: 14.76 GB (15851926693 Bytes)

    Тренер/McFarland, USA (2015) BDRip 1080p | L2
    загрузка...
    Рейтинг →
     (голосов: 1, оценка 5/5, голосовать можно 1 раз )

    Другие торренты по теме:

  • Тимко Илья Сергеевич - ТВОЙ ТРЕНЕР. Основы и нюансы любительского атлетизма (2012) PDF
  • Самый лучший тренер / Finding Lenny (2009) SATRip от RG MixTorrent | P
  • Тренер Картер / Coach Carter (2005) BDRemux | P
  • Тимко Илья. Твой Тренер - основы и нюансы любительского атлетизма (2013) PDF
  • Тимко Илья - ТВОЙ ТРЕНЕР - основы и нюансы любительского атлетизма (ИЗДАНИЕ 4) (2013) PDF
  • Тимко Илья - Твой Тренер - основы и нюансы любительского атлетизма (ИЗДАНИЕ 5) (2013) PDF
  • Тимко Илья - Твой тренер: основы и нюансы любительского атлетизма (2013) PDF скачать через торрент бесплатно
  • Тренер / Coach (2010) HDTVRip от MediaClub | P2


    • Комментарии (0):

      Информация

      Информация

        Посетители, находящиеся в группе Гости, не могут оставлять комментарии в данной новости.

        ↓ Меню



        ↓ Опрос

        А Вы добавили сайт в закладки?
        Да
        Не


        Top 10 за месяц (Фильмы)