.
Авторизация | Регистрация
Хочешь лучшие торренты? Добавь свой email!
Добавить
» » Игрок / The Gambler (2014) DVD9 | Custom скачать торрент бесплатно




    Игрок / The Gambler (2014) DVD9 | Custom скачать торрент бесплатно

    Опубликовал: Админ | Дата: 1-06-2015, 18:01 | Просмотров: 152

    Ставок больше нет

    Создали в: 2014
    Создали в: США/Paramount Pictures, Winkler Films
    Категория жанра: Триллер, драма, криминал
    Главный режиссер: Руперт Уайатт
    Продюсеры: Роберт Чартофф, Стивен Левинсон, Марк Уолберг
    Актеры: Марк Уолберг, Джон Гудман, Бри Ларсон, Майкл Кеннет Уильямс, Джессика Лэнг, Гриффин Кливлэнд, Омар Лейва, Энтони Келли, Стив Парк, Эмори Коэн
    Описание фильма:
    Джим Беннетт — рисковый парень. Днем он — гениальный писатель и отличный преподаватель, ночью — заядлый игрок. Он глубоко увяз в мире, где закон — пустой звук, и однажды ставит на кон все, включая собственную жизнь. Те, кому он должен, опасны, а помочь ему может только тот, кто еще опаснее.
    Достоин ли второго шанса человек, проигравший самого себя? А, если да, то — во сколько это ему обойдется?
    Перевод текста: Дублированный
    Язык субтитров: Английский, русский
    Дата мировой премьеры: 10 ноября 2014
    Дата российской премьеры: 22 января 2015, Централ Партнершип
    Дата выхода DVD релиза: 1 июня 2015, Новый Диск
    Время просмотра: 01: 46: 27
    Качество фильма видео: DVD9
    Информация о видео: MPEG-2, 720x576@1024x576 (PAL 16: 9), ~5600 Кбит/сек
    Информация о звуке 1: AC3 5.1, 448 Кбит/сек Английский - оригинал
    Информация о звуке 2: AC3 5.1, 448 Кбит/сек Русский - дублированный
    Доп. материалы: М-р Саморазрушение: Рассказ о фильме Игрок, Вырезанные и Расширенные Сцены
    DVDInfo:
    Title: The Gambler (2014) DVD9 PAL
    Size: 6.49 Gb ( 6 800 636, 00 KBytes ) - DVD-9
    Enabled regions: 1, 2, 3, 4, 5, 6, 7, 8
    VTS_01 :
    Play Length: 00: 00: 00
    Video: PAL 16: 9 (720x576) VBR, Auto PanScan
    Audio:
    Not specified (Dolby AC3, 2 ch)
    Not specified (Dolby AC3, 2 ch)
    Not specified (Dolby AC3, 2 ch)
    Not specified (Dolby AC3, 2 ch)
    Not specified (Dolby AC3, 2 ch)
    Not specified (Dolby AC3, 2 ch)
    Not specified (Dolby AC3, 2 ch)
    Not specified (Dolby AC3, 2 ch)
    Subtitles:
    Not specified
    Not specified
    Not specified
    Not specified
    Not specified
    Not specified
    Not specified
    Not specified
    Not specified
    Not specified
    Not specified
    Not specified
    VTS_02 :
    Play Length: 00: 00: 00+00: 00: 00
    Video: PAL 16: 9 (720x576) VBR, Auto Letterboxed
    VTS_03 :
    Play Length: 00: 13: 39
    Video: PAL 16: 9 (720x576) VBR, Auto Letterboxed
    Audio:
    English (Dolby AC3, 2 ch)
    Subtitles:
    English
    Russian
    VTS_04 :
    Play Length: 00: 23: 18+00: 09: 05+00: 02: 03+00: 02: 42+00: 01: 40+00: 06: 33+00: 01: 50
    Video: PAL 16: 9 (720x576) VBR, Auto Letterboxed
    Audio:
    English (Dolby AC3, 2 ch)
    Subtitles:
    English
    Russian
    VTS_05 :
    Play Length: 01: 46: 27+00: 00: 01+00: 00: 15+00: 00: 15
    Video: PAL 16: 9 (720x576) VBR, Auto Letterboxed
    Audio:
    English (Dolby AC3, 6 ch)
    Russian (Dolby AC3, 6 ch)
    Subtitles:
    English
    Russian
    VTS_06 :
    Play Length: 00: 00: 11+00: 00: 11
    Video: PAL 16: 9 (720x576) VBR, Auto Letterboxed
    Audio:
    English (Dolby AC3, 2 ch)
    * Menus Information *
    VIDEO_TS Menu
    Video:
    PAL 16: 9 (720x576) VBR
    Auto PanScan
    English Language Unit :
    Title Menu
    VTS_01 Menu
    Video:
    NTSC 4: 3 (720x480) VBR
    Auto PanScan, Auto Letterboxed
    English Language Unit :
    Root Menu
    VTS_02 Menu
    Video:
    PAL 16: 9 (720x576) VBR
    Auto PanScan
    Audio:
    Not specified (Dolby AC3, 2 ch)
    English Language Unit :
    Root Menu
    Audio Menu
    Angle menu
    VTS_03 Menu
    Video:
    PAL 16: 9 (720x576) VBR
    Auto PanScan
    English Language Unit :
    Root Menu
    Angle menu
    VTS_04 Menu
    Video:
    NTSC 4: 3 (720x480) VBR
    Auto PanScan, Auto Letterboxed
    English Language Unit :
    Root Menu
    VTS_05 Menu
    Video:
    PAL 16: 9 (720x576) VBR
    Auto PanScan
    Audio:
    Not specified (Dolby AC3, 2 ch)
    English Language Unit :
    Root Menu
    Subpicture Menu
    Audio Menu
    Angle menu
    Chapter (PTT) Menu
    VTS_06 Menu
    Video:
    NTSC 4: 3 (720x480) VBR
    Auto PanScan, Auto Letterboxed
    English Language Unit :
    Root Menu
    MediaInfo:
    Общее
    Полное имя : F: ВидеоThe Gambler (2014) DVD9 PALVIDEO_TSVTS_05_1.VOB
    Формат : MPEG-PS
    Размер файла : 1024 Мбайт
    Продолжительность : 21 м.
    Режим общего битрейта : Переменный
    Общий поток : 6637 Кбит/сек
    Видео
    Идентификатор : 224 (0xE0)
    Формат : MPEG Video
    Версия формата : Version 2
    Профиль формата : Main@Main
    Параметр BVOP формата : Да
    Параметр матрицы формата : Выборочная
    Параметр GOP формата : Variable
    Продолжительность : 21 м.
    Вид битрейта : Переменный
    Битрейт : 5609 Кбит/сек
    Максимальный битрейт : 9800 Кбит/сек
    Ширина : 720 пикселей
    Высота : 576 пикселей
    Соотношение сторон : 16: 9
    Частота кадров : 25, 000 кадров/сек
    Стандарт вещания : Component
    Цветовое пространство : YUV
    Субдискретизация насыщенности : 4: 2: 0
    Битовая глубина : 8 бит
    Тип развёртки : Прогрессивная
    Порядок развёртки : Верхнее поле первое
    Метод сжатия : С потерями
    Бит/(Пиксели*Кадры) : 0.541
    Временной код первого кадра : 00: 59: 59: 00
    Оригинал временного кода : Group of pictures t_head
    Размер потока : 865 Мбайт (85%)
    Основные цвета : BT.601 PAL
    Характеристики трансфера : BT.470 System B, BT.470 System G
    Коэффициенты матрицы : BT.601
    Аудио #1
    Идентификатор : 189 (0xBD)-128 (0x80)
    Формат : AC-3
    Формат/Информация : Audio Coding 3
    Расширение режима : CM (complete main)
    Параметр Endianness формата : Big
    Режим смешивания : DVD-Video
    Продолжительность : 21 м.
    Вид битрейта : Постоянный
    Битрейт : 448 Кбит/сек
    Каналы : 6 каналов
    Расположение каналов : Front: L C R, Side: L R, LFE
    Частота : 48, 0 КГц
    Битовая глубина : 16 бит
    Метод сжатия : С потерями
    Размер потока : 69, 1 Мбайт (7%)
    Аудио #2
    Идентификатор : 189 (0xBD)-129 (0x81)
    Формат : AC-3
    Формат/Информация : Audio Coding 3
    Расширение режима : CM (complete main)
    Параметр Endianness формата : Big
    Режим смешивания : DVD-Video
    Продолжительность : 21 м.
    Вид битрейта : Постоянный
    Битрейт : 448 Кбит/сек
    Каналы : 6 каналов
    Расположение каналов : Front: L C R, Side: L R, LFE
    Частота : 48, 0 КГц
    Битовая глубина : 16 бит
    Метод сжатия : С потерями
    Размер потока : 69, 1 Мбайт (7%)
    Текст #1
    Идентификатор : 189 (0xBD)-32 (0x20)
    Формат : RLE
    Формат/Информация : Run-length encoding
    Режим смешивания : DVD-Video
    Продолжительность : 21 м.
    Текст #2
    Идентификатор : 189 (0xBD)-33 (0x21)
    Формат : RLE
    Формат/Информация : Run-length encoding
    Режим смешивания : DVD-Video
    Меню
    Доп. информация:
    Исходником послужил лицензионный DVD9 из-за рубежа. Французскую звуковую дорожку заменил на русскую вместе с субтитрами. Предупреждающие надписи скрыл.
    Русская звуковая дорожка включается по умолчанию.
    Доп. материалы переведены русскими субтитрами.
    Использовались программы: MKVExtractGUI2, TranzcodeGUI, SONY Vegas Pro, DVD ReMake Pro, PgcDemux, Adobe PhotoShop, MuxMan, Subtitle Workshop, MaestroSBT, DVDSubEdit.
    Скриншоты меню:

    Скриншоты:

    Залил: Саша 1992
    Размер скачиваемого торрента: 6.49 GB (6963851264 Bytes)

    Игрок/The Gambler (2014) DVD9 | Custom
    загрузка...
    Рейтинг →
     (голосов: 1, оценка 4/5, голосовать можно 1 раз )

    Другие торренты по теме:

  • Тайный игрок / Shadow Dancer (2012) BDRip 720p от KinoFan | L1
  • Игрок 786 / Khiladi 786 (2012) HDRip от ICG Generalfilm
  • Игрок №1 / Khiladi No 1 (1997) SATRip от Files-x
  • Легендарный игрок Тэцуя / Gambler Densetsu Tetsuya (2000) DVDRip | AniDuB скачать через торрент бесплатно
  • Тайный игрок / Shadow Dancer (2012) HDRip | P2 скачать через торрент бесплатно
  • Тайный игрок / Shadow Dancer (2012) BDRip 720p от CINEMANIA | P2, L1
  • Тайный игрок / Shadow Dancer (2012) BDRip 1080p от CINEMANIA | P2, L1
  • Тайный игрок / Shadow Dancer (2012) BDRip-AVC | iPad | P2 скачать через торрент бесплатно


    • Комментарии (0):

      Информация

      Информация

        Посетители, находящиеся в группе Гости, не могут оставлять комментарии в данной новости.

        ↓ Меню



        ↓ Опрос

        А Вы добавили сайт в закладки?
        Да
        Не


        Top 10 за месяц (Фильмы)