.
Авторизация | Регистрация
Хочешь лучшие торренты? Добавь свой email!
Добавить
» » Kingsman: Секретная служба / Kingsman: The Secret Service (2014) BDRip-AVC от HQCLUB | D | Лицензия скачать торрент бесплатно




    Kingsman: Секретная служба / Kingsman: The Secret Service (2014) BDRip-AVC от HQCLUB | D | Лицензия скачать торрент бесплатно

    Опубликовал: Админ | Дата: 31-05-2015, 21:03 | Просмотров: 64

    Kingsman: Секретная служба/Kingsman: The Secret Service (2014) BDRip-AVC
    от
    HQCLUB

    Детально о кино:
    Русское название: Kingsman: Секретная служба
    Русское название в мировом прокате: Kingsman: The Secret Service
    Создали в: 2014
    Категория жанра: боевик, комедия, криминал, приключения
    Главный режиссер: Мэттью Вон/Matthew Vaughn

    Актеры
    Тэрон Эджертон, Колин Фёрт, Сэмюэл Л. Джексон, Марк Стронг, Софи Куксон, Майкл Кейн, София Бутелла, Саманта Янус, Джофф Белл, Марк Хэмилл

    Сюжет фильма
    Эггси — молодой парень, который прошел службу в морской пехоте и имеет очень высокий уровень интеллекта. Он мог бы добиться многого, но выбрал другой путь и стал мелким преступником. Однажды он знакомится с Гарри Хартом, которому его отец когда-то спас жизнь. Этот человек решил сделать все возможное, чтобы сделать жизнь Эггси лучше и открыть для него новые возможности.
    Гарри рассказал ему, что является агентом секретной независимой организации, которая стоит на защите всего мира. Он предложил парню пройти обучение и стать новым членом их команды. Эггси принял предложение Харта, но сможет ли он справиться со всеми испытаниями и оправдать его надежды?..

    Релиз от -
    Автор рипа: Elheym
    Снималось в: Великобритания ? 20th Century Fox Film Corporation, Marv Films, TSG Entertainment
    Время просмотра: 02: 08: 44
    Перевод текста: Профессиональный (полное дублирование), BD EUR
    Оригинальная аудиодорожка: английская
    Субтитры: русские (полные), украинские (полные), английские (полные, форсированные, SDH, SDH цветные)
    Главы: присутствуют, сохранены оригинальные
    Файл:
    Тип видео: MKV
    Качество фильма: BDRip-AVC (источник: / Blu-ray EUR KINGSMAN_THE_SECRET_SERVICE_HDCLUB/ 1080p)
    Информация о видео: 1146x480 (2.40: 1), 23.976 fps, MPEG-4 AVC, ~2780 kbps avg, 0.211 bit/pixel
    Информация о звуке #1: 48 kHz, AC3 Dolby Digital, 3/2 (L, C, R, l, r) + LFE ch, ~448 kbps avg (DUB)
    Информация о звуке #2: 48 kHz, AC3 Dolby Digital, 3/2 (L, C, R, l, r) + LFE ch, ~448 kbps avg (ENG)
    Размер скачиваемого торрента: 3.21 GB
    Сэмпл: скачать

    MediaInfo

    Уникальный идентификатор : 221205402759967015215114975830253609025 (0xA66A9C642D14B6DC8C33353BAF61A041)
    Полное имя : Kingsman.The.Secret.Service.2014.DUAL.BDRip-AVC.x264.AC3.-HQCLUB.mkv
    Формат : Matroska
    Версия формата : Version 2
    Размер файла : 3, 31 Гбайт
    Продолжительность : 2 ч. 8 м.
    Общий поток : 3676 Кбит/сек
    Название фильма : Kingsman: Секретная служба/Kingsman: The Secret Service (2014) BDRip-AVC by HQCLUB Elheym
    Дата кодирования : UTC 2015-05-31 12: 35: 36
    Программа кодирования : mkvmerge v5.2.0 (;I can;t explain;) built on Dec 18 2011 18: 12: 03
    Библиотека кодирования : libebml v1.2.3 + libmatroska v1.3.0
    Attachements : Cover.jpg
    Видео
    Идентификатор : 1
    Формат : AVC
    Формат/Информация : Advanced Video Codec
    Профиль формата : High@L4
    Параметр CABAC формата : Да
    Параметр ReFrames формата : 14 кадров
    Идентификатор кодека : V_MPEG4/ISO/AVC
    Продолжительность : 2 ч. 8 м.
    Битрейт : 2780 Кбит/сек
    Ширина : 1146 пикселей
    Высота : 480 пикселей
    Соотношение сторон : 2, 40: 1
    Режим частоты кадров : Постоянный
    Частота кадров : 23, 976 кадра/сек
    Цветовое пространство : YUV
    Субдискретизация насыщенности : 4: 2: 0
    Битовая глубина : 8 бит
    Тип развёртки : Прогрессивная
    Бит/(Пиксели*Кадры) : 0.211
    Размер потока : 2, 43 Гбайт (74%)
    Заголовок : Kingsman: Секретная служба/Kingsman: The Secret Service (2014) BDRip-AVC by HQCLUB Elheym
    Библиотека кодирования : x264 core 146 r0+2586 e393126 t_mod_Custom 8-bit@all X86_64
    Настройки программы : cabac=1/ref=14/deblock=1: -2: -1/analyse=0x3: 0x113/me=umh/subme=11/psy=1/fade_compensate=0.00/psy_rd=1.05: 0.05/mixed_ref=1/me_range=28/chroma_me=1/trellis=2/8x8dct=1/cqm=0/deadzone=21, 11/fast_pskip=0/chroma_qp_offset=-3/threads=6/lookahead_threads=2/sliced_threads=0/nr=0/decimate=0/interlaced=0/bluray_compat=0/constrained_intra=0/fgo=0/bframes=16/b_pyramid=2/b_adapt=2/b_bias=0/direct=3/weightb=1/open_gop=0/weightp=2/keyint=230/keyint_min=23/scenecut=40/intra_refresh=0/rc_lookahead=80/rc=2pass/mbtree=0/bitrate=2780/ratetol=1.0/qcomp=0.80/qpmin=0: 0: 0/qpmax=69: 69: 69/qpstep=4/cplxblur=20.0/qblur=0.5/vbv_maxrate=20000/vbv_bufsize=25000/nal_hrd=none/filler=0/ip_ratio=1.40/pb_ratio=1.30/aq=2: 0.90/aq-sensitivity=10.00/aq-factor=1.00: 1.00: 1.00/aq2=0/aq3=0/zones=175360, 185194, b=0.25
    Язык : English
    Default : Да
    Forced : Нет
    Аудио #1
    Идентификатор : 2
    Формат : AC-3
    Формат/Информация : Audio Coding 3
    Расширение режима : CM (complete main)
    Параметр Endianness формата : Big
    Идентификатор кодека : A_AC3
    Продолжительность : 2 ч. 8 м.
    Вид битрейта : Постоянный
    Битрейт : 448 Кбит/сек
    Каналы : 6 каналов
    Расположение каналов : Front: L C R, Side: L R, LFE
    Частота : 48, 0 КГц
    Метод сжатия : С потерями
    Размер потока : 413 Мбайт (12%)
    Заголовок : АС3 5.1 @ 448 kbps - Dub, BD EUR
    Язык : Russian
    Default : Нет
    Forced : Нет
    Аудио #2
    Идентификатор : 3
    Формат : AC-3
    Формат/Информация : Audio Coding 3
    Расширение режима : CM (complete main)
    Параметр Endianness формата : Big
    Идентификатор кодека : A_AC3
    Продолжительность : 2 ч. 8 м.
    Вид битрейта : Постоянный
    Битрейт : 448 Кбит/сек
    Каналы : 6 каналов
    Расположение каналов : Front: L C R, Side: L R, LFE
    Частота : 48, 0 КГц
    Метод сжатия : С потерями
    Размер потока : 413 Мбайт (12%)
    Заголовок : АС3 5.1 @ 448 kbps - Original
    Язык : English
    Default : Нет
    Forced : Нет
    Текст #1
    Идентификатор : 4
    Формат : UTF-8
    Идентификатор кодека : S_TEXT/UTF8
    Идентификатор кодека/Информация : UTF-8 Plain Text
    Заголовок : Full
    Язык : Russian
    Default : Нет
    Forced : Нет
    Текст #2
    Идентификатор : 5
    Формат : UTF-8
    Идентификатор кодека : S_TEXT/UTF8
    Идентификатор кодека/Информация : UTF-8 Plain Text
    Заголовок : Full
    Язык : Ukrainian
    Default : Нет
    Forced : Нет
    Текст #3
    Идентификатор : 6
    Формат : UTF-8
    Идентификатор кодека : S_TEXT/UTF8
    Идентификатор кодека/Информация : UTF-8 Plain Text
    Заголовок : Full
    Язык : English
    Default : Нет
    Forced : Нет
    Текст #4
    Идентификатор : 7
    Формат : UTF-8
    Идентификатор кодека : S_TEXT/UTF8
    Идентификатор кодека/Информация : UTF-8 Plain Text
    Заголовок : Forced
    Язык : English
    Default : Нет
    Forced : Нет
    Текст #5
    Идентификатор : 8
    Формат : UTF-8
    Идентификатор кодека : S_TEXT/UTF8
    Идентификатор кодека/Информация : UTF-8 Plain Text
    Заголовок : SDH
    Язык : English
    Default : Нет
    Forced : Нет
    Текст #6
    Идентификатор : 9
    Формат : UTF-8
    Идентификатор кодека : S_TEXT/UTF8
    Идентификатор кодека/Информация : UTF-8 Plain Text
    Заголовок : SDH Colored
    Язык : English
    Default : Нет
    Forced : Нет
    Меню
    00: 00: 00.000 : : Chapter 01
    00: 02: 55.466 : : Chapter 03
    00: 04: 50.665 : : Chapter 05
    00: 08: 34.180 : : Chapter 07
    00: 11: 49.875 : : Chapter 09
    00: 13: 04.575 : : Chapter 11
    00: 15: 57.998 : : Chapter 13
    00: 18: 25.979 : : Chapter 15
    00: 23: 48.051 : : Chapter 17
    00: 25: 37.327 : : Chapter 19
    00: 29: 53.750 : : Chapter 21
    00: 32: 25.276 : : Chapter 23
    00: 33: 47.900 : : Chapter 25
    00: 37: 01.469 : : Chapter 27
    00: 38: 49.618 : : Chapter 29
    00: 42: 46.021 : : Chapter 31
    00: 45: 03.867 : : Chapter 33
    00: 47: 42.276 : : Chapter 35
    00: 53: 47.557 : : Chapter 37
    00: 57: 28.194 : : Chapter 39
    01: 03: 29.514 : : Chapter 41
    01: 05: 21.876 : : Chapter 43
    01: 10: 27.932 : : Chapter 45
    01: 13: 10.219 : : Chapter 47
    01: 15: 01.955 : : Chapter 49
    01: 16: 58.196 : : Chapter 51
    01: 23: 03.812 : : Chapter 53
    01: 25: 57.402 : : Chapter 55
    01: 31: 21.309 : : Chapter 57
    01: 34: 38.798 : : Chapter 59
    01: 36: 27.948 : : Chapter 61
    01: 39: 59.994 : : Chapter 63
    01: 44: 07.866 : : Chapter 65
    01: 50: 31.082 : : Chapter 67
    01: 58: 21.219 : : Chapter 69
    01: 59: 38.462 : : Chapter 71
    02: 08: 43.924 : : Chapter 72

    x264 log

    x264 info: frame I: 1822 Avg QP: 13.81 size: 100645
    x264 info: frame P: 43004 Avg QP: 17.33 size: 31215
    x264 info: frame B: 140369 Avg QP: 19.54 size: 8236
    x264 info: consecutive B-frames: 4.1% 3.6% 10.7% 17.3% 16.8% 29.9% 6.4% 5.0% 2.4% 0.8% 0.9% 0.5% 0.4% 0.7% 0.2% 0.1% 0.3%
    x264 info: ref P L0: 48.1% 10.4% 17.1% 6.0% 4.8% 3.2% 2.8% 1.4% 1.4% 1.2% 1.0% 0.8% 0.8% 0.7% 0.2% 0.0%
    x264 info: ref B L0: 72.1% 12.6% 5.6% 2.7% 1.9% 1.4% 1.1% 0.7% 0.6% 0.5% 0.4% 0.3% 0.1%
    x264 info: ref B L1: 91.6% 8.4%

    Цитата Кто-тописал:
    Версия без купюр: не для просмотра с детьми.


    Онлайн видео Kingsman: Секретная служба


    Размер скачиваемого торрента: 3.31 GB (3549697148 Bytes)

    Kingsman: Секретная служба/Kingsman: The Secret Service (2014) BDRip-AVC от HQCLUB | D | Лицензия
    загрузка...
    Рейтинг →
     (голосов: 1, оценка 4/5, голосовать можно 1 раз )

    Другие торренты по теме:

  • Kingsman: Тайная служба / Kingsman: Секретная служба (2015) TS
  • Kingsman: Секретная служба / Kingsman: The Secret Service (2014) TS
  • Kingsman: Секретная служба / Kingsman: The Secret Service (2014) HDRip | iTunes
  • Kingsman: Секретная служба / Kingsman: The Secret Service (2014) HDRip | iTunes
  • Kingsman: Секретная служба / Kingsman: The Secret Service (2014) BDRip 720p | iTunes
  • Kingsman: Секретная служба / Kingsman: The Secret Service (2014) BDRip 1080p | D | iTunes
  • Kingsman: Секретная служба / Kingsman: The Secret Service (2014) HDRip-AVC от ExKinoRay | iTunes
  • Kingsman: Секретная служба / Kingsman: The Secret Service (2014) HDRip-AVC | iTunes


    • Комментарии (0):

      Информация

      Информация

        Посетители, находящиеся в группе Гости, не могут оставлять комментарии в данной новости.

        ↓ Меню



        ↓ Опрос

        А Вы добавили сайт в закладки?
        Да
        Не


        Top 10 за месяц (Фильмы)