.
Авторизация | Регистрация
Хочешь лучшие торренты? Добавь свой email!
Добавить
» » Копы в глубоком запасе / The Other Guys (2010) BDRip 720p от HQ-ViDEO | Расширенная версия | D скачать торрент бесплатно




    Копы в глубоком запасе / The Other Guys (2010) BDRip 720p от HQ-ViDEO | Расширенная версия | D скачать торрент бесплатно

    Опубликовал: Админ | Дата: 31-05-2015, 17:51 | Просмотров: 80


    Копы в глубоком запасе Расширенная версия/The Other Guys Extended Cut (2010) BDRip 720p
    Релиз от HQ-ViDEO

    Детально о кино
    Русское название: Копы в глубоком запасе
    Русское название в мировом прокате: The Other Guys
    Создали в: 2010
    Категория жанра: боевик, комедия, криминал
    Главный режиссер: Адам МакКэй /Adam McKay/

    Актеры
    Марк Уолберг /Mark Wahlberg/, Уилл Феррелл /Will Ferrell/, Сэмюэл Л. Джексон /Samuel L. Jackson/, Дуэйн Джонсон /Dwayne Johnson/, Ева Мендес /Eva Mendes/, Ларнел Стовэлл /Larnell Stovall/, Дерек Джетер /Derek Jeter/, Джалил Джей Линч /Jalil Jay Lynch/, Рой Т. Андерсон /Roy T. Anderson/, Эндрю Секунда /Andrew Secunda/, Сара Чейз /Sara Chase/, Дэвид Гидеон /David Gideon/...

    Сюжет фильма

    Нью-Йоркские детективы Аллен Гэмбл и Терри Хойтз ведут полицейскую бухгалтерию. Гэмблу такая работа в радость, Хойтзу — наказание. Когда напарникам представится шанс выйти из тени — прийти на помощь своим кумирам, детективам Дэнсону и Манцетти — станет ясно, что в бухгалтерию Гэмбла и Хойтза сослали не зря...

    Снималось в: США
    Время просмотра: 01: 56: 15
    Перевод текста: Русский дублированный (со вставками MVO на расширенные места) + Оригинальная, английская дорожка (отдельно)
    Файл
    Кодек для видео: MKV, H.264
    Качество фильма: BDRip 720p (Source: Blu-ray Disc)
    Информация о видео: 4824 kbps; 0.293 bit/pixel; 1280 x 536; 2.35: 1; 23.976 fps
    Информация о звуке #1: AC3 Dolby Digital; 448.00 kbps, 6 Ch - DUB
    Информация о звуке #2: AC3 Dolby Digital; 448.00 kbps, 6 Ch - ENG (отдельно/скачать с Яндекс Диск)
    Субтитры: Английские.
    Субтитры: Русские (Voronine (полные, форсированные), sergw0), Английские.(отдельно)
    Размер скачиваемого торрента: 4.37 GB
    SAMPLE/скачать с Яндекс Диск
    MediaInfo

    General
    Complete name : Kopy.V.Glubokom.Zapase.2010.RUS.BDRip.720p.h264.AC3.-HQ-ViDEO.mkv
    Format : Matroska
    File size : 4.37 GiB
    Duration : 1h 56mn
    Overall bit rate : 5 379 Kbps
    Movie name : The Other Guys (2010)
    Encoded date : UTC 2010-12-20 09: 50: 29
    Writing application : mkvmerge v3.3.0 (;Language;) built on Mar 24 2010 14: 59: 24
    Writing library : libebml v0.8.0 + libmatroska v0.9.0
    Video
    ID : 1
    Format : AVC
    Format/Info : Advanced Video Codec
    Format profile : High@L4.1
    Format settings, CABAC : Yes
    Format settings, ReFrames : 6 frames
    Muxing mode : Container profile=Unknown@4.1
    Codec ID : V_MPEG4/ISO/AVC
    Duration : 1h 56mn
    Bit rate : 4 824 Kbps
    Width : 1 280 pixels
    Height : 536 pixels
    Display aspect ratio : 2.35: 1
    Frame rate : 23.976 fps
    Resolution : 8 bits
    Colorimetry : 4: 2: 0
    Scan type : Progressive
    Bits/(Pixel*Frame) : 0.293
    Stream size : 3.91 GiB (90%)
    Title : Encoded by GYN
    Audio
    ID : 2
    Format : AC-3
    Format/Info : Audio Coding 3
    Codec ID : A_AC3
    Duration : 1h 56mn
    Bit rate mode : Constant
    Bit rate : 448 Kbps
    Channel(s) : 6 channels
    Channel positions : Front: L C R, Surround: L R, LFE
    Sampling rate : 48.0 KHz
    Stream size : 373 MiB (8%)
    Title : DUB
    Language : Russian
    Text
    ID : 3
    Format : UTF-8
    Codec ID : S_TEXT/UTF8
    Codec ID/Info : UTF-8 Plain Text
    Language : English





    Релиз подготовил: HQ-ViDEO
    Автор рипа: GYN

    Онлайн видео Копы в глубоком запасе


    Размер скачиваемого торрента: 4.37 GB (4690244622 Bytes)

    Копы в глубоком запасе/The Other Guys (2010) BDRip 720p от HQ-ViDEO | Расширенная версия | D
    загрузка...
    Рейтинг →
     (голосов: 1, оценка 3/5, голосовать можно 1 раз )

    Другие торренты по теме:

  • Копы в глубоком запасе / The Other Guys (2010) HDRip от Scarabey | Театральная версия
  • Копы в юбках / The Heat (2013) TS
  • Копы в юбках / The Heat (2013) HDTVRip | Звук с TS
  • Копы в юбках / The Heat (2013) WEB-DL 720p | UNRATED | Звук с TS
  • Копы в юбках / The Heat (2013) HDRip | UNRATED | Звук с TS
  • Копы в юбках / The Heat (2013) BDRip-AVC от HELLYWOOD | Extended | D.Al. скачать через торрент бесплатно
  • Копы в юбках / The Heat (2013) BDRip 720p | UNRATED | D скачать через торрент бесплатно
  • Копы в юбках / The Heat (2013) BDRemux 1080p | UNRATED | D скачать через торрент бесплатно


    • Комментарии (0):

      Информация

      Информация

        Посетители, находящиеся в группе Гости, не могут оставлять комментарии в данной новости.

        ↓ Меню



        ↓ Опрос

        А Вы добавили сайт в закладки?
        Да
        Не


        Top 10 за месяц (Фильмы)