.
Авторизация | Регистрация
Хочешь лучшие торренты? Добавь свой email!
Добавить
» » Дом, милый ад / Home Sweet Hell (2015) BDRip 720p от KinoGadget | iPad скачать торрент бесплатно




    Дом, милый ад / Home Sweet Hell (2015) BDRip 720p от KinoGadget | iPad скачать торрент бесплатно

    Опубликовал: Админ | Дата: 31-05-2015, 15:04 | Просмотров: 193


    Создали в: 2015
    Снималось в: США
    Категория жанра: триллер, комедия, драма
    Время просмотра: 01: 37: 51
    Перевод текста: Профессиональный многоголосый
    Главный режиссер: Энтони Бёрнс

    Актеры
    Патрик Уилсон, Кэтрин Хейгл, Джордана Брюстер, Джеймс Белуши, Кевин МакКидд, А.Дж. Бакли, Алишия Окс, Брайс Джонсон, Стеффи Гроут, Хит Фриман, Эйден Флауэрс, Мэдисон Вульф, Ноэль Рени Берси, Йоханс Майлс, Катрин Блейк, Боб Уокер, Арти Бакстер, Брэнди Николь Уилсон, Хезер Эшли Бойд, Росс П. Кук
    Описание: Соблазнительная и интригующая новая сотрудница компании становится проблемой для бизнесмена, который женат на одержимой женщине, пытающейся контролировать все аспекты его жизни.

    Информация о видео кодек: MPEG-4 AVC
    Качество фильма: BDRip 720p
    Параметры Видео: 1280x544, 23.976 fps; ~1 575 kbps avg
    Параметры Звука: 44.1 KHz, AAC, ~150.00 kbps avg, 2ch
    Тип видео: mp4
    Автор рипа:
    Релиз-группа:

    Meta Tags


    MI
    General
    Complete name : E: Dom, _milyj_ad.2015.P.BDRip.720p_KinoGadget.mp4
    Format : MPEG-4
    Format profile : Base Media
    Codec ID : isom
    File size : 1.18 GiB
    Duration : 1h 37mn
    Overall bit rate mode : Variable
    Overall bit rate : 1 733 Kbps
    Movie name : Дом, милый ад
    Performer : Энтони Бёрнс
    Genre : Comedy, Drama
    ContentType : Short Film
    Recorded date : 2015
    Encoded date : UTC 2015-05-31 04: 15: 25
    Tagged date : UTC 2015-05-31 07: 27: 18
    Cover : Yes
    ContentRating : mpaa|R|400|
    LongDeion : Соблазнительная и интригующая новая сотрудница компании становится проблемой для бизнесмена, который женат на одержимой женщине, пытающейся контролировать все аспекты его жизни.
    HDVideo : Yes
    Video
    ID : 1
    Format : AVC
    Format/Info : Advanced Video Codec
    Format profile : High@L4.1
    Format settings, CABAC : Yes
    Format settings, ReFrames : 9 frames
    Codec ID : avc1
    Codec ID/Info : Advanced Video Coding
    Duration : 1h 37mn
    Bit rate : 1 575 Kbps
    Maximum bit rate : 5 116 Kbps
    Width : 1 280 pixels
    Height : 544 pixels
    Display aspect ratio : 2.35: 1
    Frame rate mode : Constant
    Frame rate : 23.976 fps
    Color space : YUV
    Chroma subsampling : 4: 2: 0
    Bit depth : 8 bits
    Scan type : Progressive
    Bits/(Pixel*Frame) : 0.094
    Stream size : 1.08 GiB (91%)
    Writing library : x264 core 146 r2538 121396c
    Encoding settings : cabac=1/ref=9/deblock=1: -1: -1/analyse=0x3: 0x133/me=umh/subme=9/psy=1/psy_rd=1.00: 0.00/mixed_ref=1/me_range=24/chroma_me=1/trellis=2/8x8dct=1/cqm=0/deadzone=21, 11/fast_pskip=1/chroma_qp_offset=-2/threads=3/lookahead_threads=1/sliced_threads=0/nr=0/decimate=1/interlaced=0/bluray_compat=0/constrained_intra=0/bframes=4/b_pyramid=2/b_adapt=2/b_bias=0/direct=3/weightb=1/open_gop=0/weightp=2/keyint=240/keyint_min=23/scenecut=40/intra_refresh=0/rc_lookahead=60/rc=crf/mbtree=1/crf=21.0/qcomp=0.60/qpmin=0/qpmax=69/qpstep=4/ip_ratio=1.40/aq=1: 1.50
    Encoded date : UTC 2015-05-31 02: 10: 27
    Tagged date : UTC 2015-05-31 04: 16: 02
    Audio
    ID : 2
    Format : AAC
    Format/Info : Advanced Audio Codec
    Format profile : LC
    Codec ID : 40
    Duration : 1h 37mn
    Bit rate mode : Variable
    Bit rate : 150 Kbps
    Maximum bit rate : 221 Kbps
    Channel count : 2 channels
    Channel positions : Front: L R
    Sampling rate : 44.1 KHz
    Compression mode : Lossy
    Stream size : 105 MiB (9%)
    Language : Russian
    Encoded date : UTC 2015-05-31 04: 15: 49
    Tagged date : UTC 2015-05-31 04: 16: 02

    Скриншоты


    Залил: KinoGadget

    Онлайн видео Дом, милый ад


    Размер скачиваемого торрента: 1.18 GB (1271568313 Bytes)

    Дом, милый ад/Home Sweet Hell (2015) BDRip 720p от KinoGadget | iPad
    загрузка...
    Рейтинг →
     (голосов: 1, оценка 3/5, голосовать можно 1 раз )

    Другие торренты по теме:

  • Дом, милый дом / Home Sweet Home (2013) WEB-DLRip | L1
  • Азбука цветов: Дом, милый дом / Gekijouban Hana-Saku Iroha: Home Sweet Home (2013) BDRip 720p | AniFilm скачать через торрент бесплатно
  • Дом, милый дом / Home Sweet Home (2013) BDRip 720p от CINEMANIA | L1
  • Дом, милый дом / Home Sweet Home (2013) BDRip 1080p от CINEMANIA | L1
  • Азбука цветов: Дом, милый дом / Gekijouban Hana-Saku Iroha: Home Sweet Home (2013) BDRip скачать через торрент бесплатно
  • Дом, милый ад / Home Sweet Hell (2015) BDRip | iTunes
  • Милый дом / Sweet Home (2015) BDRip 720p | L2


    • Комментарии (0):

      Информация

      Информация

        Посетители, находящиеся в группе Гости, не могут оставлять комментарии в данной новости.

        ↓ Меню



        ↓ Опрос

        А Вы добавили сайт в закладки?
        Да
        Не


        Top 10 за месяц (Фильмы)