.
Авторизация | Регистрация
Хочешь лучшие торренты? Добавь свой email!
Добавить
» » Пятый океан (1940) DVDRip от New-Team скачать торрент бесплатно




    Пятый океан (1940) DVDRip от New-Team скачать торрент бесплатно

    Опубликовал: Админ | Дата: 31-05-2015, 03:14 | Просмотров: 161


    Снималось в: СССР
    Создали в: Киевская киностудия
    Категория жанра: драма
    Создали в: 1940
    Время просмотра: 01: 13: 48
    Перевод текста: Не требуется
    Субтитры подготовлены: нет
    Оригинальная аудиодорожка: русский
    Главный режиссер: Исидор Анненский

    Актеры

    Евгения Горкуша, Андрей Абрикосов, Петр Алейников, Антон Дунайский, Василий Зайчиков, Анастасия Зуева, Алексей Максимов, Иван Новосельцев, Александра Попова, О. Шахет, Дмитрий Капка...
    Описание:
    В конце тридцатых годов мечтой советского человека было небо, воздушный океан. Десятки аэроклубов открывались по всей стране, через считанные месяцы их выпускники будут бомбить фрица на фанерных птицах. Охотник из тайги заканчивает летную школу и совершает первые боевые вылеты…




    Источник: DVD5 R5
    Качество фильма видео: DVDRip
    Тип видео видео: AVI
    Виде: 688x512 (4: 3), 25 fps, XviD ~ 1275 kbps avg, 0.145 bit/pixel
    Информация о звуке: 48 kHz, MP3 2.0, 128 kbps
    Раздача от:
    MediaInfo

    Общее
    Полное имя : Pyatyy.okean.1940.DVDRip-745_New-team_by_AVP_Studio.avi
    Формат : AVI
    Формат/Информация : Audio Video Interleave
    Размер файла : 746 Мбайт
    Продолжительность : 1 ч. 13 м.
    Общий поток : 1413 Кбит/сек
    Программа кодирования : VirtualDubModRus 1.5.10.2 (build 2542/release)
    Библиотека кодирования : VirtualDubMod build 2542/release
    Видео
    Идентификатор : 0
    Формат : MPEG-4 Visual
    Профиль формата : Advanced Simple@L5
    Параметр BVOP формата : 1
    Параметр QPel формата : Нет
    Параметр GMC формата : Без точки перехода
    Параметр матрицы формата : Выборочная
    Идентификатор кодека : XVID
    Идентификатор кодека/Подсказка : XviD
    Продолжительность : 1 ч. 13 м.
    Битрейт : 1275 Кбит/сек
    Ширина : 688 пикселей
    Высота : 512 пикселей
    Соотношение сторон : 4: 3
    Частота кадров : 25, 000 кадров/сек
    Цветовое пространство : YUV
    Субдискретизация насыщенности : 4: 2: 0
    Битовая глубина : 8 бит
    Тип развёртки : Прогрессивная
    Метод сжатия : С потерями
    Бит/(Пиксели*Кадры) : 0.145
    Размер потока : 673 Мбайт (90%)
    Библиотека кодирования : XviD 73
    Аудио
    Идентификатор : 1
    Формат : MPEG Audio
    Версия формата : Version 1
    Профиль формата : Layer 3
    Идентификатор кодека : 55
    Идентификатор кодека/Подсказка : MP3
    Продолжительность : 1 ч. 13 м.
    Вид битрейта : Постоянный
    Битрейт : 128 Кбит/сек
    Каналы : 2 канала
    Частота : 48, 0 КГц
    Метод сжатия : С потерями
    Размер потока : 67, 6 Мбайт (9%)
    Выравнивание : Соединение по промежуткам
    Продолжительность промежутка : 40 мс. (1, 00 видеокадр)
    Время предзагрузки промежутка : 504 мс.
    Библиотека кодирования : LAME3.99r
    Залил: AVPStudio

    Онлайн видео Пятый океан (1940) DVDRip от New


    Размер скачиваемого торрента: 745.90 MB (782131200 Bytes)


    Пятый океан (1940) DVDRip от New-Team
    загрузка...
    Рейтинг →
     (голосов: 1, оценка 3/5, голосовать можно 1 раз )

    Другие торренты по теме:

  • Пятый мушкетер, или тайна железной маски / Пятый мушкетер / The Fifth Musketeer (1979) DVDRip
  • ...а пятый всадник – Страх / ...a paty jezdec je Strach (1964) DVDRip от ClubTorrent | L
  • Пятый элемент / The Fifth Element (1997) BDRip от Sanjar NeoJet | КПК
  • Пятый элемент / The Fifth Element (1997) BDRip-AVC | iPhone | D
  • Пятый элемент / The Fifth Element (1997) BDRip-AVC от Leonardo and Scarabey | D
  • Битлз: Четыре плюс один (Пятый в квартете) / Backbeat (1994) DVDRip-AVC от Temperest
  • Пятый элемент / The Fifth Element (1997) BDRip 720p от NNNB | 60 fps | D, P, P2, A скачать через торрент бесплатно
  • Шура Половчанский - Пятый концерт скачать через торрент бесплатно


    • Комментарии (0):

      Информация

      Информация

        Посетители, находящиеся в группе Гости, не могут оставлять комментарии в данной новости.

        ↓ Меню



        ↓ Опрос

        А Вы добавили сайт в закладки?
        Да
        Не


        Top 10 за месяц (Фильмы)