.
Авторизация | Регистрация
Хочешь лучшие торренты? Добавь свой email!
Добавить
» » Агент Картер / Agent Carter (2015) WEB-DL 1080p | Невафильм скачать торрент бесплатно




    Агент Картер / Agent Carter (2015) WEB-DL 1080p | Невафильм скачать торрент бесплатно

    Опубликовал: Админ | Дата: 31-05-2015, 03:12 | Просмотров: 105


    Создали в: 2015
    Снималось в: США
    Категория жанра: Боевик, фантастика, драма
    Время просмотра: ~ 00: 42: 00
    Перевод текста: Полное дублирование Невафильм
    Главный режиссёр: Стивен Крегг, Луис Д’Эспозито, Питер Лето

    Актеры
    Хейли Этвелл, Джеймс Д’Арси, Чад Майкл Мюррэй, Энвер Гьокай, Ши Уигхэм, Линдси Фонсека, Бриджет Риган, Ральф Браун, Меган Фэй, Доминик Купер
    Описание: История Пегги Картер. В 1946 году мир нанес Пегги серьезный удар, когда она оказывается в неудобном для нее положении с возвращением домой мужчин со сражений за границей. Работая на секретную организацию СНР (Стратегический Научный Резерв), Пегги должна найти баланс между административной работой и секретными миссиями для Говарда Старка, одновременно пытаясь жить нормальной жизнью одинокой женщины в Америке после утраты любви всей ее жизни — Стива Роджерса.
    СЕМПЛ
    Качество фильма: WEB-DL 1080p
    Тип видео: MKV
    Информация о видео кодек: H.264
    Информация о звуке кодек: AC3
    Информация о видео: 4988 Kbps, 1920x1080 (16: 9), 23.976 fps
    Информация о звуке: AC3, 48.0 KHz, 2 ch, 192 kbps RU
    Информация о звуке 2: AC3, 48.0 KHz, 6 ch, 384 kbps ENG
    Субтитры: русские, английские
    Дубляж приобретен за счет mrpooph и BS666 .Запись звука - xironfs .
    MediaInfo

    Общее
    Уникальный идентификатор : 186550608057573241565471891761954583849 (0x8C585718AB5336D6A7B9C3BAB5107529)
    Полное имя : D: ЗагрузкиAgent.Carter.S01.1080pAgent.Carter.s01e01.1080p.mkv
    Формат : Matroska
    Версия формата : Version 4/Version 2
    Размер файла : 1, 69 Гбайт
    Продолжительность : 42 м.
    Общий поток : 5677 Кбит/сек
    Дата кодирования : UTC 2015-05-23 15: 33: 57
    Программа кодирования : mkvmerge v7.1.0 (;Good Love;) 64bit built on Jul 27 2014 13: 06: 55
    Библиотека кодирования : libebml v1.3.0 + libmatroska v1.4.1
    _STATISTICS_WRITING_APP : mkvmerge v7.1.0 (;Good Love;) 64bit built on Jul 27 2014 13: 06: 55
    _STATISTICS_WRITING_DATE_UTC : 2015-05-23 15: 33: 57
    _STATISTICS_TAGS : BPS DURATION NUMBER_OF_FRAMES NUMBER_OF_BYTES
    DURATION : 00: 41: 52.442000000
    NUMBER_OF_FRAMES : 752
    NUMBER_OF_BYTES : 31597
    Видео
    Идентификатор : 1
    Формат : AVC
    Формат/Информация : Advanced Video Codec
    Профиль формата : High@L4.0
    Параметр CABAC формата : Да
    Параметр ReFrames формата : 4 кадра
    Идентификатор кодека : V_MPEG4/ISO/AVC
    Продолжительность : 42 м.
    Битрейт : 4988 Кбит/сек
    Ширина : 1920 пикселей
    Высота : 1080 пикселей
    Соотношение сторон : 16: 9
    Режим частоты кадров : Постоянный
    Частота кадров : 23, 976 кадра/сек
    Цветовое пространство : YUV
    Субдискретизация насыщенности : 4: 2: 0
    Битовая глубина : 8 бит
    Тип развёртки : Прогрессивная
    Бит/(Пиксели*Кадры) : 0.100
    Размер потока : 1, 48 Гбайт (88%)
    Язык : English
    Default : Да
    Forced : Нет
    Основные цвета : BT.709
    Характеристики трансфера : BT.709
    Коэффициенты матрицы : BT.709
    Аудио #1
    Идентификатор : 2
    Формат : AC-3
    Формат/Информация : Audio Coding 3
    Расширение режима : CM (complete main)
    Параметр Endianness формата : Big
    Идентификатор кодека : A_AC3
    Продолжительность : 42 м.
    Вид битрейта : Постоянный
    Битрейт : 192 Кбит/сек
    Каналы : 2 канала
    Расположение каналов : Front: L R
    Частота : 48, 0 КГц
    Битовая глубина : 16 бит
    Метод сжатия : С потерями
    Размер потока : 58, 5 Мбайт (3%)
    Язык : Russian
    Default : Да
    Forced : Нет
    Аудио #2
    Идентификатор : 3
    Формат : AC-3
    Формат/Информация : Audio Coding 3
    Расширение режима : CM (complete main)
    Параметр Endianness формата : Big
    Идентификатор кодека : A_AC3
    Продолжительность : 42 м.
    Вид битрейта : Постоянный
    Битрейт : 384 Кбит/сек
    Каналы : 6 каналов
    Расположение каналов : Front: L C R, Side: L R, LFE
    Частота : 48, 0 КГц
    Битовая глубина : 16 бит
    Метод сжатия : С потерями
    Размер потока : 117 Мбайт (7%)
    Язык : English
    Default : Нет
    Forced : Нет
    Текст #1
    Идентификатор : 4
    Формат : UTF-8
    Идентификатор кодека : S_TEXT/UTF8
    Идентификатор кодека/Информация : UTF-8 Plain Text
    Язык : Russian
    Default : Нет
    Forced : Нет
    Текст #2
    Идентификатор : 5
    Формат : UTF-8
    Идентификатор кодека : S_TEXT/UTF8
    Идентификатор кодека/Информация : UTF-8 Plain Text
    Язык : English
    Default : Нет
    Forced : Нет
    Скриншоты



    Залил: JIe6egeB

    Онлайн видео Агент Картер


    Размер скачиваемого торрента: 13.00 GB (13962328643 Bytes)

    Агент Картер/Agent Carter (2015) WEB-DL 1080p | Невафильм
    загрузка...
    Рейтинг →
     (голосов: 1, оценка 5/5, голосовать можно 1 раз )

    Другие торренты по теме:

  • Короткометражка Marvel: Агент Картер / Marvel One-Shot: Agent Carter (2013) BDRip-AVC | P
  • Агент Картер / Agent Carter (2013) BDRip 1080p скачать через торрент бесплатно
  • Агент Картер / Agent Carter (2015) WEB-DLRip от Scarabey | LostFilm скачать через торрент бесплатно
  • Агент Картер / Marvel Agent Carter (2014 - 2015) WEB-DL 1080p | LostFilm
  • Агент Картер / Agent Carter (2014-2015) WEB-DL 720p | LostFilm
  • Агент Картер / Agent Carter (2015) HDTVRip l L1 скачать через торрент бесплатно
  • Агент Картер / Marvel Agent Carter (2014 - 2015) WEB-DLRip 1080p | LostFilm
  • Агент Картер / Agent Carter (2015) HDTVRip l L1


    • Комментарии (0):

      Информация

      Информация

        Посетители, находящиеся в группе Гости, не могут оставлять комментарии в данной новости.

        ↓ Меню



        ↓ Опрос

        А Вы добавили сайт в закладки?
        Да
        Не


        Top 10 за месяц (Фильмы)