.
Авторизация | Регистрация
Хочешь лучшие торренты? Добавь свой email!
Добавить
» » Точки над I / Dot the I (2003) DVDRip-AVC от Scarabey | P, P2 скачать торрент бесплатно




    Точки над I / Dot the I (2003) DVDRip-AVC от Scarabey | P, P2 скачать торрент бесплатно

    Опубликовал: Админ | Дата: 30-05-2015, 21:02 | Просмотров: 128


    Создали в: 2003
    Снималось в: Великобритания, Испания, США
    Категория жанра: триллер, драма, мелодрама
    Время просмотра: 01: 27: 51
    Перевод текста #1: Профессиональный (многоголосый, закадровый)
    Перевод текста #2: Профессиональный (двухголосый, закадровый)
    Субтитры подготовлены:
    #1: Русские; SRT UTF-8
    #2: Русские; VobSub
    #3: Английские; SRT UTF-8
    #4: Английские; VobSub
    Главный режиссер: Мэттью Паркхилл/Matthew Parkhill

    Актеры
    Гаэль Гарсиа Берналь, Наталия Вербеке, Джеймс Д’Арси, Том Харди, Чарли Кокс, Ив Обер, Мифануи Уоринг, Майкл Веббер, Джонатан Кидд, Майкл Элвин

    Описание фильма
    Кармен недавно пережила в Испании страстный и мучительный роман, но теперь обрела покой и уверенность со своим женихом Барнаби, который просто обожает ее. Кармен уверена, что этот брак даст ей ту стабильность, о которой она страстно мечтает.
    Накануне своей свадьбы Кармен легкомысленно дарит поцелуй привлекательному незнакомцу по имени Кит, и этот единственный поцелуй неожиданно поднимает в ней утихшие страсти.
    Качество фильма видео: DVDRip-AVC
    Тип видео видео: MKV
    Информация о видео: 720x572 @ 1016x572; 25 fps; 2123 Kbps
    Информация о звуке #1: Русский; AC3; 2 Ch; 48.0 KHz; 224 Kbps; | MVO
    Информация о звуке #2: Русский; AC3; 6 Ch; 48.0 KHz; 384 Kbps; | DVO
    Информация о звуке #3: Английский; AC3; 6 Ch; 48.0 KHz; 384 Kbps; | Оригинал
    Релиз подготовил:
    АНОНСЫ МОИХ РАЗДАЧ!

    МедиаИнфо

    Tochki_nad_i_2003_AVC_DVDRip_scarabey.org.mkv
    Format : Matroska
    Format version : Version 4/Version 2
    File size : 1.91 GiB
    Duration : 1h 27mn
    Overall bit rate : 3 120 Kbps
    Encoded date : UTC 2015-05-24 20: 36: 26
    Writing application : mkvmerge v6.1.0 (;Old Devil;) built on Mar 4 2013 09: 10: 42
    Writing library : libebml v1.3.0 + libmatroska v1.4.0
    Video
    ID : 1
    Format : AVC
    Format/Info : Advanced Video Codec
    Format profile : High@L4.1
    Format settings, CABAC : Yes
    Format settings, ReFrames : 8 frames
    Codec ID : V_MPEG4/ISO/AVC
    Duration : 1h 27mn
    Bit rate : 2 123 Kbps
    Width : 720 pixels
    Height : 572 pixels
    Display aspect ratio : 16: 9
    Frame rate mode : Constant
    Frame rate : 25.000 fps
    Color space : YUV
    Chroma subsampling : 4: 2: 0
    Bit depth : 8 bits
    Scan type : Progressive
    Bits/(Pixel*Frame) : 0.206
    Stream size : 1.27 GiB (66%)
    Writing library : x264 core 130 r2273 b3065e6
    Encoding settings : cabac=1/ref=8/deblock=1: -2: -1/analyse=0x3: 0x113/me=umh/subme=10/psy=1/psy_rd=1.00: 0.05/mixed_ref=1/me_range=32/chroma_me=1/trellis=2/8x8dct=1/cqm=0/deadzone=21, 11/fast_pskip=0/chroma_qp_offset=-3/threads=12/lookahead_threads=2/sliced_threads=0/nr=0/decimate=0/interlaced=0/bluray_compat=0/constrained_intra=0/bframes=8/b_pyramid=2/b_adapt=2/b_bias=0/direct=3/weightb=1/open_gop=0/weightp=2/keyint=250/keyint_min=25/scenecut=40/intra_refresh=0/rc=2pass/mbtree=0/bitrate=2123/ratetol=1.0/qcomp=0.60/qpmin=0/qpmax=69/qpstep=4/cplxblur=20.0/qblur=0.5/ip_ratio=1.40/pb_ratio=1.30/aq=1: 1.00
    Default : Yes
    Forced : No
    Audio #1
    ID : 2
    Format : AC-3
    Format/Info : Audio Coding 3
    Mode extension : CM (complete main)
    Format settings, Endianness : Big
    Codec ID : A_AC3
    Duration : 1h 27mn
    Bit rate mode : Constant
    Bit rate : 224 Kbps
    Channel(s) : 2 channels
    Channel positions : Front: L R
    Sampling rate : 48.0 KHz
    Bit depth : 16 bits
    Compression mode : Lossy
    Stream size : 141 MiB (7%)
    Title : Многоголоска
    Language : Russian
    Default : Yes
    Forced : No
    Audio #2
    ID : 3
    Format : AC-3
    Format/Info : Audio Coding 3
    Mode extension : CM (complete main)
    Format settings, Endianness : Big
    Codec ID : A_AC3
    Duration : 1h 27mn
    Bit rate mode : Constant
    Bit rate : 384 Kbps
    Channel(s) : 6 channels
    Channel positions : Front: L C R, Side: L R, LFE
    Sampling rate : 48.0 KHz
    Bit depth : 16 bits
    Compression mode : Lossy
    Stream size : 241 MiB (12%)
    Title : Двухголоска
    Language : Russian
    Default : No
    Forced : No
    Audio #3
    ID : 4
    Format : AC-3
    Format/Info : Audio Coding 3
    Mode extension : CM (complete main)
    Format settings, Endianness : Big
    Codec ID : A_AC3
    Duration : 1h 27mn
    Bit rate mode : Constant
    Bit rate : 384 Kbps
    Channel(s) : 6 channels
    Channel positions : Front: L C R, Side: L R, LFE
    Sampling rate : 48.0 KHz
    Bit depth : 16 bits
    Compression mode : Lossy
    Stream size : 241 MiB (12%)
    Title : Оригинал
    Language : English
    Default : No
    Forced : No
    Text #1
    ID : 5
    Format : UTF-8
    Codec ID : S_TEXT/UTF8
    Codec ID/Info : UTF-8 Plain Text
    Title : Русские; SRT UTF-8
    Language : Russian
    Default : Yes
    Forced : No
    Text #2
    ID : 6
    Format : VobSub
    Muxing mode : zlib
    Codec ID : S_VOBSUB
    Codec ID/Info : The same subtitle format used on DVDs
    Title : Русские; VobSub
    Language : Russian
    Default : No
    Forced : No
    Text #3
    ID : 7
    Format : UTF-8
    Codec ID : S_TEXT/UTF8
    Codec ID/Info : UTF-8 Plain Text
    Title : Английские; SRT UTF-8
    Language : English
    Default : No
    Forced : No
    Text #4
    ID : 8
    Format : VobSub
    Muxing mode : zlib
    Codec ID : S_VOBSUB
    Codec ID/Info : The same subtitle format used on DVDs
    Title : Английские; VobSub
    Language : English
    Default : No
    Forced : No

    Анаморф:



    Онлайн видео Точки над I


    Размер скачиваемого торрента: 1.91 GB (2055854565 Bytes)

    Точки над I/Dot the I (2003) DVDRip-AVC от Scarabey | P, P2
    загрузка...
    Рейтинг →
     (голосов: 1, оценка 4/5, голосовать можно 1 раз )

    Другие торренты по теме:

  • Точки над I / Dot the I (2003) DVDRip-AVC скачать через торрент бесплатно


    • Комментарии (0):

      Информация

      Информация

        Посетители, находящиеся в группе Гости, не могут оставлять комментарии в данной новости.

        ↓ Меню



        ↓ Опрос

        А Вы добавили сайт в закладки?
        Да
        Не


        Top 10 за месяц (Фильмы)