.
Авторизация | Регистрация
Хочешь лучшие торренты? Добавь свой email!
Добавить
» » Простушка / The DUFF (2015) BDRip 720p от KinoGadget | iPad скачать торрент бесплатно




    Простушка / The DUFF (2015) BDRip 720p от KinoGadget | iPad скачать торрент бесплатно

    Опубликовал: Админ | Дата: 30-05-2015, 15:01 | Просмотров: 152


    Создали в: 2015
    Снималось в: США
    Категория жанра: комедия, мелодрама
    Время просмотра: 01: 41: 15
    Перевод текста: Дублированный
    Главный режиссер: Эри Сандел

    Актеры
    Мэй Уитман, Робби Амелл, Белла Торн, Бьянка А. Сантос, Скайлер Сэмюэлс, Романи Малко, Ник Эверсман, Крис Уайлд, Кен Жонг, Эллисон Джэнни
    Описание: Качок, ботан, рокер, стерва — в каждой компании есть персонажи с такими кличками. Бьянка Пайпер не подозревает, как ее зовут за ее спиной. Подружки списывают у нее физику и берут ее с собой на тусовки, чтобы круче смотреться на ее фоне. Школьный плейбой Уэсли Раш открывает ей глаза на правду… Как Бьянке избавиться от позорного статуса, стать неотразимой и завоевать сердце первого красавца?

    Информация о видео кодек: MPEG-4 AVC
    Качество фильма: BDRip 720p
    Параметры Видео: 1280x536, 23.976 fps; ~1 881 kbps avg
    Параметры Звука: 44.1 KHz, AAC, ~150.00 kbps avg, 2ch
    Тип видео: mp4
    Автор рипа:
    Релиз-группа:

    Meta Tags


    MI
    General
    Complete name : E: Prostushka.2015.D.BDRip.720p_KinoGadget.mp4
    Format : MPEG-4
    Format profile : Base Media
    Codec ID : isom
    File size : 1.44 GiB
    Duration : 1h 41mn
    Overall bit rate mode : Variable
    Overall bit rate : 2 038 Kbps
    Movie name : Простушка
    Performer : Эри Сандел
    Genre : Comedy
    ContentType : Short Film
    Recorded date : 2015
    Encoded date : UTC 2015-05-30 06: 57: 55
    Tagged date : UTC 2015-05-30 07: 19: 11
    Cover : Yes
    ContentRating : mpaa|PG-13|300|
    LongDeion : Качок, ботан, рокер, стерва — в каждой компании есть персонажи с такими кличками. Бьянка Пайпер не подозревает, как ее зовут за ее спиной. Подружки списывают у нее физику и берут ее с собой на тусовки, чтобы круче смотреться на ее фоне. Школьный плейбой Уэсли Раш открывает ей глаза на правду… Как Бьянке избавиться от позорного статуса, стать неотразимой и завоевать сердце первого красавца?
    HDVideo : Yes
    Video
    ID : 1
    Format : AVC
    Format/Info : Advanced Video Codec
    Format profile : High@L4.1
    Format settings, CABAC : Yes
    Format settings, ReFrames : 11 frames
    Codec ID : avc1
    Codec ID/Info : Advanced Video Coding
    Duration : 1h 41mn
    Bit rate : 1 881 Kbps
    Maximum bit rate : 10.9 Mbps
    Width : 1 280 pixels
    Height : 536 pixels
    Display aspect ratio : 2.40: 1
    Frame rate mode : Constant
    Frame rate : 23.976 fps
    Color space : YUV
    Chroma subsampling : 4: 2: 0
    Bit depth : 8 bits
    Scan type : Progressive
    Bits/(Pixel*Frame) : 0.114
    Stream size : 1.33 GiB (92%)
    Writing library : x264 core 146 r2538 121396c
    Encoding settings : cabac=1/ref=11/deblock=1: -1: -1/analyse=0x3: 0x133/me=umh/subme=9/psy=1/psy_rd=1.00: 0.20/mixed_ref=1/me_range=24/chroma_me=1/trellis=2/8x8dct=1/cqm=0/deadzone=21, 11/fast_pskip=1/chroma_qp_offset=-3/threads=3/lookahead_threads=1/sliced_threads=0/nr=0/decimate=1/interlaced=0/bluray_compat=0/constrained_intra=0/bframes=4/b_pyramid=2/b_adapt=2/b_bias=0/direct=3/weightb=1/open_gop=0/weightp=2/keyint=240/keyint_min=23/scenecut=40/intra_refresh=0/rc_lookahead=60/rc=crf/mbtree=1/crf=21.0/qcomp=0.60/qpmin=0/qpmax=69/qpstep=4/ip_ratio=1.40/aq=1: 1.00
    Encoded date : UTC 2015-05-29 06: 12: 51
    Tagged date : UTC 2015-05-30 06: 58: 41
    Audio
    ID : 2
    Format : AAC
    Format/Info : Advanced Audio Codec
    Format profile : LC
    Codec ID : 40
    Duration : 1h 41mn
    Bit rate mode : Variable
    Bit rate : 150 Kbps
    Maximum bit rate : 216 Kbps
    Channel count : 2 channels
    Channel positions : Front: L R
    Sampling rate : 44.1 KHz
    Compression mode : Lossy
    Stream size : 108 MiB (7%)
    Language : Russian
    Encoded date : UTC 2015-05-30 06: 58: 24
    Tagged date : UTC 2015-05-30 06: 58: 41

    Скриншоты


    Залил: KinoGadget

    Онлайн видео Простушка


    Размер скачиваемого торрента: 1.44 GB (1547635856 Bytes)

    Простушка/The DUFF (2015) BDRip 720p от KinoGadget | iPad
    загрузка...
    Рейтинг →
     (голосов: 1, оценка 5/5, голосовать можно 1 раз )

    Другие торренты по теме:

  • Простушка (2015) HDRip 720
  • Простушка / The DUFF (2015) WEB-DLRip от AleksSin | iTunes
  • Простушка / The DUFF (2015) WEB-DLRip | D | iTunes
  • Простушка / The DUFF (2015) BDRip 1080p | D | iTunes
  • Простушка / The DUFF (2015) HDRip от Scarabey | iTunes
  • Простушка / The DUFF (2015) HDRip от Scarabey | iTunes
  • Коди Кеплингер - Простушка (2015) FB2, EPUB
  • Простушка / The DUFF (2015) Blu-ray 1080p от BLUEBIRD | D | iTunes


    • Комментарии (0):

      Информация

      Информация

        Посетители, находящиеся в группе Гости, не могут оставлять комментарии в данной новости.

        ↓ Меню



        ↓ Опрос

        А Вы добавили сайт в закладки?
        Да
        Не


        Top 10 за месяц (Фильмы)