.
Авторизация | Регистрация
Хочешь лучшие торренты? Добавь свой email!
Добавить
» » Коловрат. Восхождение (2016) WEBRip 1080p | Трейлер скачать торрент бесплатно




    Коловрат. Восхождение (2016) WEBRip 1080p | Трейлер скачать торрент бесплатно

    Опубликовал: Админ | Дата: 29-05-2015, 16:55 | Просмотров: 262


    Создали в: 2016
    Создали в: Россия
    Категория жанра: история, боевик, триллер, драма
    Главный режиссер: Рустам Мосафир
    Продюсеры: Рустам Мосафир, Александр Наас
    Описание фильма:
    Первая часть саги, рассказывающая о становлении легендарного русского богатыря Евпатия Коловрата.
    Дата мировой премьеры: 2016

    Время просмотра: 00: 05: 28
    Качество фильма видео: WEBRip
    Информация о видеокодек: MPEG-4 AVC/H.264
    Битрейт видео: 2800 Кбит/сек
    Размер скачиваемого торрента кадра: 1920x1080
    Информация о звукекодек: AC3 2.0
    Битрейт аудио: 254 Кбит/сек
    MediaInfo:

    Общее
    Полное имя : Коловрат. Восхождение (2016) Русский Тизер.mp4
    Формат : MPEG-4
    Профиль формата : Base Media
    Идентификатор кодека : isom
    Размер файла : 120 Мбайт
    Продолжительность : 5 м. 28 с.
    Общий поток : 3059 Кбит/сек
    Программа кодирования : Lavf56.19.100
    Видео
    Идентификатор : 1
    Формат : AVC
    Формат/Информация : Advanced Video Codec
    Профиль формата : High@L4
    Параметр CABAC формата : Да
    Параметр ReFrames формата : 2 кадра
    Идентификатор кодека : avc1
    Идентификатор кодека/Информация : Advanced Video Coding
    Продолжительность : 5 м. 28 с.
    Битрейт : 2800 Кбит/сек
    Ширина : 1920 пикселей
    Высота : 816 пикселей
    Соотношение сторон : 2, 35: 1
    Режим частоты кадров : Постоянный
    Частота кадров : 25, 000 кадров/сек
    Цветовое пространство : YUV
    Субдискретизация насыщенности : 4: 2: 0
    Битовая глубина : 8 бит
    Тип развёртки : Прогрессивная
    Бит/(Пиксели*Кадры) : 0.071
    Размер потока : 110 Мбайт (92%)
    Аудио
    Идентификатор : 2
    Формат : AAC
    Формат/Информация : Advanced Audio Codec
    Профиль формата : LC
    Идентификатор кодека : 40
    Продолжительность : 5 м. 28 с.
    Вид битрейта : Постоянный
    Битрейт : 254 Кбит/сек
    Каналы : 2 канала
    Расположение каналов : Front: L R
    Частота : 44, 1 КГц
    Метод сжатия : С потерями
    Размер потока : 9, 93 Мбайт (8%)

    Скриншоты



    Скриншоты



    Залил: Jokerzv

    Онлайн видео Коловрат. Восхождение (2016) WEBRip 1080p


    Размер скачиваемого торрента: 119.81 MB (125625864 Bytes)

    Коловрат. Восхождение (2016) WEBRip 1080p | Трейлер
    загрузка...
    Рейтинг →
     (голосов: 1, оценка 4/5, голосовать можно 1 раз )

    Другие торренты по теме:

  • Коловрат - Правое Дело (2015) МР3


    • Комментарии (0):

      Информация

      Информация

        Посетители, находящиеся в группе Гости, не могут оставлять комментарии в данной новости.

        ↓ Меню



        ↓ Опрос

        А Вы добавили сайт в закладки?
        Да
        Не


        Top 10 за месяц (Фильмы)