.
Авторизация | Регистрация
Хочешь лучшие торренты? Добавь свой email!
Добавить
» » Собачий полдень / Dog Day Afternoon (1975) BDRip 720p от HQ-ViDEO | P скачать торрент бесплатно




    Собачий полдень / Dog Day Afternoon (1975) BDRip 720p от HQ-ViDEO | P скачать торрент бесплатно

    Опубликовал: Админ | Дата: 29-05-2015, 15:03 | Просмотров: 99


    Собачий полдень/Dog Day Afternoon (1975) BDRip 720p
    Релиз от HQ-ViDEO

    Детально о кино
    Русское название: Собачий полдень
    Русское название в мировом прокате: Dog Day Afternoon
    Создали в: 1975
    Категория жанра: драма, криминал
    Главный режиссер: Сидни Люмет /Sidney Lumet/

    Актеры
    Аль Пачино /Al Pacino/, Джон Казале /John Cazale/, Чарльз Дёрнинг /Charles Durning/, Крис Сарандон /Chris Sarandon/, Салли Бойар /Sully Boyar/, Пенелопа Аллен /Penelope Allen/, Джеймс Бродерик /James Broderick/, Кэрол Кейн /Carol Kane/, Бьюла Гэррик /Beulah Garrick/, Сандра Кэзан /Sandra Kazan/...

    Сюжет фильма

    В жаркий бруклинский полдень двое воодушевленных неудачников решают ограбить банк. Санни — главарь, Сэл — помощник, а провал — результат. Потому что полиция, толпы зевак, телекамеры и даже разносчик пиццы прибыли на место происшествия. Хорошо спланированное ограбление превращается в цирк.

    Снималось в: США
    Время просмотра: 02: 04: 39
    Перевод текста: Русский профессиональный, многоголосый + Оригинальная, английская дорожка
    Файл
    Кодек для видео: MKV, H.264
    Качество фильма: BDRip 720p (Source: Blu-ray Disc)
    Информация о видео: 6941 kbps; 0.314 bit/pixel; 1280 x 720; 16: 9; 23.976 fps
    Информация о звуке #1: AC3 Dolby Digital; 192.00 kbps, 2 Ch - MVO
    Информация о звуке #2: AC3 Dolby Digital; 192.00 kbps, 1 Ch - ENG
    Субтитры: Русские, Английские.
    Размер скачиваемого торрента: 6.51 GB
    MediaInfo

    General
    Complete name : Sobachiy.Polden.1975.DUAL.BDRip.720p.h264.AC3.-HQ-ViDEO.mkv
    Format : Matroska
    File size : 6.51 GiB
    Duration : 2h 4mn
    Overall bit rate : 7 474 Kbps
    Movie name : Dog Day Afternoon (1975)
    Encoded date : UTC 2010-09-24 05: 01: 17
    Writing application : mkvmerge v3.3.0 (;Language;) built on Mar 24 2010 14: 59: 24
    Writing library : libebml v0.8.0 + libmatroska v0.9.0
    Video
    ID : 1
    Format : AVC
    Format/Info : Advanced Video Codec
    Format profile : High@L4.1
    Format settings, CABAC : Yes
    Format settings, ReFrames : 6 frames
    Muxing mode : Container profile=Unknown@4.1
    Codec ID : V_MPEG4/ISO/AVC
    Duration : 2h 4mn
    Bit rate : 6 941 Kbps
    Width : 1 280 pixels
    Height : 720 pixels
    Display aspect ratio : 16: 9
    Frame rate : 23.976 fps
    Resolution : 8 bits
    Colorimetry : 4: 2: 0
    Scan type : Progressive
    Bits/(Pixel*Frame) : 0.314
    Stream size : 6.04 GiB (93%)
    Title : Encoded by GYN
    Audio #1
    ID : 2
    Format : AC-3
    Format/Info : Audio Coding 3
    Codec ID : A_AC3
    Duration : 2h 4mn
    Bit rate mode : Constant
    Bit rate : 192 Kbps
    Channel(s) : 2 channels
    Channel positions : L R
    Sampling rate : 48.0 KHz
    Stream size : 171 MiB (3%)
    Title : MVO
    Language : Russian
    Audio #2
    ID : 3
    Format : AC-3
    Format/Info : Audio Coding 3
    Codec ID : A_AC3
    Duration : 2h 4mn
    Bit rate mode : Constant
    Bit rate : 192 Kbps
    Channel(s) : 1 channel
    Channel positions : C
    Sampling rate : 48.0 KHz
    Stream size : 171 MiB (3%)
    Title : Original
    Language : English
    Text #1
    ID : 4
    Format : UTF-8
    Codec ID : S_TEXT/UTF8
    Codec ID/Info : UTF-8 Plain Text
    Language : Russian
    Text #2
    ID : 5
    Format : UTF-8
    Codec ID : S_TEXT/UTF8
    Codec ID/Info : UTF-8 Plain Text
    Language : English




    Релиз подготовил: HQ-ViDEO
    Автор рипа: GYN

    Онлайн видео Собачий полдень


    Размер скачиваемого торрента: 6.51 GB (6987471454 Bytes)

    Собачий полдень/Dog Day Afternoon (1975) BDRip 720p от HQ-ViDEO | P
    загрузка...
    Рейтинг →
     (голосов: 1, оценка 4/5, голосовать можно 1 раз )

    Другие торренты по теме:

  • Собачий полдень / Dog Day Afternoon (1975) HDRip | P
  • Собачий полдень / Dog Day Afternoon (1975) BDRip 720p от Leonardo and Scarabey | P2 | A


    • Комментарии (0):

      Информация

      Информация

        Посетители, находящиеся в группе Гости, не могут оставлять комментарии в данной новости.

        ↓ Меню



        ↓ Опрос

        А Вы добавили сайт в закладки?
        Да
        Не


        Top 10 за месяц (Фильмы)