.
Авторизация | Регистрация
Хочешь лучшие торренты? Добавь свой email!
Добавить
» » Тени незабытых предков / Тiнi незабутих предкiв (2013) WEBRip от AleksSin | D скачать торрент бесплатно




    Тени незабытых предков / Тiнi незабутих предкiв (2013) WEBRip от AleksSin | D скачать торрент бесплатно

    Опубликовал: Админ | Дата: 29-05-2015, 03:05 | Просмотров: 99


    Детально о кино
    Русское название: Тени незабытых предков
    Русское название в мировом прокате: Тiнi незабутих предкiв
    Создали в: 2013
    Категория жанра: фэнтези, триллер, детектив, приключения
    Главный режиссер: Любомир Левицкий

    Актеры
    Алена Мусиенко, Богдан Юсипчук, Ольга Фреймут, Дмитрий Ступка, Владислав Никитюк, Павел Ли, Софа Галабурад, Марина Шако, Роксолана Кравчук, Ольга Сумская

    Сюжет фильма

    Несколько столетий назад в украинских Карпатах бесчинствовали злые духи и прочие химеры. Тогда девять магов запечатали потустороннюю нечисть в Книгу Теней и заклеймили ее магическим Згардом. С того времени Згард находился в безопасном месте, надежно оберегая вход в наш мир от злых духов. Однако волею судьбы Згард был найден и передан университету, после чего жизнь некоторых студентов изменилась навсегда. Спасти студентов и уничтожить зло сможет только потомок последнего колдуна — мольфара.

    Снималось в: Украина
    Киностудия: Suspense Film, Terminal Entertainment, Unison Cinema
    Время просмотра: 01: 49: 36
    Перевод текста: Дублированный
    Файл
    Кодек для видео: AVI (XviD)
    Качество фильма: WebRip
    Информация о видео: 720x304 (2.37: 1), 23.976 fps, XviD build 73 ~1697 kbps avg, 0.32 bit/pixel
    Информация о звуке: 48 kHz, AC3 Dolby Digital, 2/0 (L, R) ch, ~192.00 kbps avg
    Субтитры: нет
    Семпл
    MediaInfo

    Общее
    Полное имя : S: ФильмыТени незабытых предков. 2013. WEBRip. (AleksSin).avi
    Формат : AVI
    Формат/Информация : Audio Video Interleave
    Размер файла : 1, 45 Гбайт
    Продолжительность : 1 ч. 49 м.
    Общий поток : 1898 Кбит/сек
    Программа кодирования : VirtualDubMod 1.5.10.3 | www.virtualdub-fr.org || (build 2550/release)
    Библиотека кодирования : VirtualDubMod build 2550/release
    Видео
    Идентификатор : 0
    Формат : MPEG-4 Visual
    Профиль формата : Advanced Simple@L5
    Параметр BVOP формата : 1
    Параметр QPel формата : Нет
    Параметр GMC формата : Без точки перехода
    Параметр матрицы формата : Выборочная
    Идентификатор кодека : XVID
    Идентификатор кодека/Подсказка : XviD
    Продолжительность : 1 ч. 49 м.
    Битрейт : 1697 Кбит/сек
    Ширина : 720 пикс.
    Высота : 304 пикс.
    Соотношение сторон : 2, 35: 1
    Частота кадров : 23, 976 кадр/сек
    Цветовое пространство : YUV
    Подвыборка цветности : 4: 2: 0
    Битовая глубина : 8 бит
    Тип развёртки : Прогрессивная
    Метод сжатия : С потерями
    Бит/(Пиксели*Кадры) : 0.323
    Размер потока : 1, 30 Гбайт (89%)
    Библиотека кодирования : XviD 73
    Аудио
    Идентификатор : 1
    Формат : AC-3
    Формат/Информация : Audio Coding 3
    Расширение режима : CM (complete main)
    Идентификатор кодека : 2000
    Продолжительность : 1 ч. 49 м.
    Вид битрейта : Постоянный
    Битрейт : 192 Кбит/сек
    Каналы : 2 канала
    Расположение каналов : Front: L R
    Частота : 48, 0 КГц
    Битовая глубина : 16 бит
    Метод сжатия : С потерями
    Размер потока : 151 Мбайт (10%)
    Выравнивание : Разделение по промежуткам
    Продолжительность промежутка : 42 мс. (1, 00 видеокадр)
    Время предзагрузки промежутка : 500 ms

    Скриншоты

    Релиз подготовил:
    Залил: *AleksSin*

    Онлайн видео Тени незабытых предков


    Размер скачиваемого торрента: 1.45 GB (1560725504 Bytes)

    Тени незабытых предков/Тiнi незабутих предкiв (2013) WEBRip от AleksSin | D
    загрузка...
    Рейтинг →
     (голосов: 1, оценка 5/5, голосовать можно 1 раз )

    Другие торренты по теме:

  • Тіні незабутих предків / Тени незабытых предков (2013) скачать через торрент бесплатно
  • Концепт-Арт - Тени незабытых предков (2014) JPG
  • Тени незабытых предков / Тiнi незабутих предкiв (2013) WEBRip 720p
  • Тени незабытых предков / Тiнi незабутих предкiв (2013) WEBRip от AleksSin | D


    • Комментарии (0):

      Информация

      Информация

        Посетители, находящиеся в группе Гости, не могут оставлять комментарии в данной новости.

        ↓ Меню



        ↓ Опрос

        А Вы добавили сайт в закладки?
        Да
        Не


        Top 10 за месяц (Фильмы)