.
Авторизация | Регистрация
Хочешь лучшие торренты? Добавь свой email!
Добавить
» » Внезапная смерть / Sudden Death (1995) BDRip от 0ptimus | P, P2, A скачать торрент бесплатно




    Внезапная смерть / Sudden Death (1995) BDRip от 0ptimus | P, P2, A скачать торрент бесплатно

    Опубликовал: Админ | Дата: 28-05-2015, 15:03 | Просмотров: 117


    Внезапная смерть
    | Sudden Death |

    Детально о кино
    Русское название: Внезапная смерть
    Русское название в мировом прокате: Sudden Death
    Создали в: 1995
    Категория жанра: боевик, триллер, драма
    Главный режиссер: Питер Хайамс

    Актеры
    Жан-Клод Ван Дамм, Пауэрс Бут, Рэймонд Дж. Бэрри, Уиттни Райт, Росс Мэлинджер, Дориан Хэрвуд, Кейт МакНил, Майкл Гэстон, Одра Линдли, Брайан Дилейт, Стив Аронсон, Майкл Р. Обеле, Карен Элиз Болдуин, Дженнифер Д. Баузер, Пэт Бриссон, Гленда Морган Браун, Джофри С. Браун, Уильям Камерон, Бернард Канепари, Джэй Кофилд, Алан Клемент, Билл Клемент, Билл Дэлзелл, Гилберт Б. Комбс, Джэк Эрди, Эд Эванко, Дэвид Флик, Гленн Алан Гарднер, Джон Холл, Джефф Хабберстэд, Марк Хагер, Джон Хэтли

    Сюжет фильма

    Во время проведения решающего хоккейного матча кубка Стенли гигантский стадион оказывается в заложниках у группы террористов, возглавляемых бывшим сотрудником службы безопасности. В случае отказа или задержки выполнения их требований (перевод значительной суммы на различные банковские счета) преступники грозятся взорвать здание. На их беду, среди персонала спорткомплекса оказывается мужественный пожарный, а среди зрителей подвергающихся смертельной опасности, — его дети.

    Снималось в: США
    Киностудия: Imperial Entertainment, Signature Entertainment, Universal Pictures
    Время просмотра: 01: 49: 58
    Перевод текста: Профессиональный многоголосый, профессиональный двухголосый, авторский
    Файл
    Кодек для видео: XviD
    Качество фильма: BDRip
    Информация о видео: 1504 Кбит/с, 720х304, 23.976 кадр/с
    Информация о звуке:
    • №1: Русский (АС3, 2 ch, 192 Кбит/с)/Профессиональный многоголосый (Премьер Видео)
    • №2: Русский (АС3, 2 ch, 192 Кбит/с)/Профессиональный многоголосый (СТС)
    Отдельно:
    • №3: Русский (АС3, 2 ch, 192 Кбит/с)/Профессиональный многоголосый
    • №4: Русский (АС3, 2 ch, 192 Кбит/с)/Профессиональный двухголосый (НТВ)
    • №5: Русский (АС3, 6 ch, 384 Кбит/с)/Профессиональный двухголосый
    • №6: Русский (АС3, 2 ch, 192 Кбит/с)/Авторский одноголосый (Сергей Визгунов)
    • №7: Русский (АС3, 2 ch, 192 Кбит/с)/Авторский одноголосый (Андрей Гаврилов)
    • №8: Русский (АС3, 6 ch, 384 Кбит/с)/Авторский одноголосый (Юрий Живов)
    • №9: Английский (АС3, 6 ch, 384 Кбит/с)
    Субтитры: Русские, английские
    MediaInfo

    Полное имя : Vnezapnaja.smert.1995.XviD.BDRip.0ptimus.avi
    Формат : AVI
    Формат/Информация : Audio Video Interleave
    Размер файла : 1, 46 Гбайт
    Продолжительность : 1 ч. 49 м.
    Общий поток : 1902 Кбит/сек
    Программа кодирования : VirtualDubMod 1.5.10.2 (build 2540/release)
    Библиотека кодирования : VirtualDubMod build 2540/release
    Видео
    Идентификатор : 0
    Формат : MPEG-4 Visual
    Профиль формата : Advanced Simple@L5
    Параметр BVOP формата : 1
    Параметр QPel формата : Нет
    Параметр GMC формата : Без точки перехода
    Параметр матрицы формата : Выборочная
    Идентификатор кодека : XVID
    Идентификатор кодека/Подсказка : XviD
    Продолжительность : 1 ч. 49 м.
    Битрейт : 1504 Кбит/сек
    Ширина : 720 пикселей
    Высота : 304 пикселя
    Соотношение сторон : 2, 35: 1
    Частота кадров : 23, 976 кадра/сек
    Цветовое пространство : YUV
    Субдискретизация насыщенности : 4: 2: 0
    Битовая глубина : 8 бит
    Тип развёртки : Прогрессивная
    Метод сжатия : С потерями
    Бит/(Пиксели*Кадры) : 0.287
    Размер потока : 1, 16 Гбайт (79%)
    Библиотека кодирования : XviD 64
    Аудио #1
    Идентификатор : 1
    Формат : AC-3
    Формат/Информация : Audio Coding 3
    Расширение режима : CM (complete main)
    Идентификатор кодека : 2000
    Продолжительность : 1 ч. 49 м.
    Вид битрейта : Постоянный
    Битрейт : 192 Кбит/сек
    Каналы : 2 канала
    Расположение каналов : Front: L R
    Частота : 48, 0 КГц
    Битовая глубина : 16 бит
    Метод сжатия : С потерями
    Размер потока : 151 Мбайт (10%)
    Выравнивание : Разделение по промежуткам
    Продолжительность промежутка : 42 мс. (1, 00 видеокадр)
    Время предзагрузки промежутка : 500 мс.
    Аудио #2
    Идентификатор : 2
    Формат : AC-3
    Формат/Информация : Audio Coding 3
    Расширение режима : CM (complete main)
    Идентификатор кодека : 2000
    Продолжительность : 1 ч. 49 м.
    Вид битрейта : Постоянный
    Битрейт : 192 Кбит/сек
    Каналы : 2 канала
    Расположение каналов : Front: L R
    Частота : 48, 0 КГц
    Битовая глубина : 16 бит
    Метод сжатия : С потерями
    Размер потока : 151 Мбайт (10%)
    Выравнивание : Разделение по промежуткам
    Продолжительность промежутка : 42 мс. (1, 00 видеокадр)
    Время предзагрузки промежутка : 500 мс.
    Скриншоты



    Релиз подготовил:
    Залил: 0ptimus

    Онлайн видео Внезапная смерть


    Размер скачиваемого торрента: 2.94 GB (3152313214 Bytes)

    Внезапная смерть/Sudden Death (1995) BDRip от 0ptimus | P, P2, A
    загрузка...
    Рейтинг →
     (голосов: 1, оценка 4/5, голосовать можно 1 раз )

    Другие торренты по теме:

  • Внезапная смерть / Sudden Death (1995) HDRip от Leon-masl
  • Внезапная смерть / Sudden Death (1995) BDRip-AVC от 0ptimus | P, P2, A
  • Внезапная смерть / Sudden Death (1995) BDRip от HQCLUB скачать через торрент бесплатно
  • Внезапная смерть / Sudden Death (1995) HDRip от Scarabey | P скачать через торрент бесплатно
  • Внезапная смерть / Sudden Death (1995) BDRip (720p) | P, P2, A
  • Внезапная смерть / Sudden Death (1995) BDRip 1080p | P, P2, A
  • Внезапная смерть / Sudden Death (1995) HDRip-AVC от ExKinoRay | P


    • Комментарии (0):

      Информация

      Информация

        Посетители, находящиеся в группе Гости, не могут оставлять комментарии в данной новости.

        ↓ Меню



        ↓ Опрос

        А Вы добавили сайт в закладки?
        Да
        Не


        Top 10 за месяц (Фильмы)