.
Авторизация | Регистрация
Хочешь лучшие торренты? Добавь свой email!
Добавить
» » Кое-что задаром (2016) WEBRip 1080p | Трейлер скачать торрент бесплатно




    Кое-что задаром (2016) WEBRip 1080p | Трейлер скачать торрент бесплатно

    Опубликовал: Админ | Дата: 27-05-2015, 15:02 | Просмотров: 162


    Создали в: 2016
    Создали в: Россия
    Категория жанра: Триллер, фантастика
    Главный режиссер: Алексей Талызин
    Продюсеры: Алексей Талызин, Алексей Эрберг
    Актеры: Максим Пономарёв, Александр Удалов
    Описание фильма:
    Сюжет картины строится вокруг финансиста Макса — ему в руки попадает прибор, который может материализовывать желаемое, в том числе деньги. И подобный подарок судьбы застаёт Макса в трудный период его жизни. Его намеренно подставляют и увольняют с работы, а единственный близкий и дорогой ему человек — младшая сестра, борется за жизнь с тяжёлой болезнью, на лечение которой требуется большая сумма денег. Казалось бы, подобный прибор может только помочь Максу. Но за ним начинает охотиться некий Агент, угрожая уже его жизни.
    Дата мировой премьеры: 2016

    Время просмотра: 00: 01: 58
    Качество фильма видео: WEBRip
    Информация о видеокодек: MPEG-4 AVC/H.264
    Битрейт видео: 2600 Кбит/сек
    Размер скачиваемого торрента кадра: 1920x1080
    Информация о звукекодек: AC3 2.0
    Битрейт аудио: 254 Кбит/сек
    MediaInfo:

    Общее
    Полное имя : Кое-что задаром Русский Тизер-Трейлер (2016).mp4
    Формат : MPEG-4
    Профиль формата : Base Media
    Идентификатор кодека : isom
    Размер файла : 40, 4 Мбайт
    Продолжительность : 1 м. 58 с.
    Общий поток : 2857 Кбит/сек
    Программа кодирования : Lavf56.19.100
    Видео
    Идентификатор : 1
    Формат : AVC
    Формат/Информация : Advanced Video Codec
    Профиль формата : High@L4
    Параметр CABAC формата : Да
    Параметр ReFrames формата : 2 кадра
    Идентификатор кодека : avc1
    Идентификатор кодека/Информация : Advanced Video Coding
    Продолжительность : 1 м. 58 с.
    Битрейт : 2600 Кбит/сек
    Ширина : 1920 пикселей
    Высота : 1080 пикселей
    Соотношение сторон : 16: 9
    Режим частоты кадров : Постоянный
    Частота кадров : 25, 000 кадров/сек
    Цветовое пространство : YUV
    Субдискретизация насыщенности : 4: 2: 0
    Битовая глубина : 8 бит
    Тип развёртки : Прогрессивная
    Бит/(Пиксели*Кадры) : 0.050
    Размер потока : 36, 7 Мбайт (91%)
    Аудио
    Идентификатор : 2
    Формат : AAC
    Формат/Информация : Advanced Audio Codec
    Профиль формата : LC
    Идентификатор кодека : 40
    Продолжительность : 1 м. 58 с.
    Вид битрейта : Постоянный
    Битрейт : 254 Кбит/сек
    Каналы : 2 канала
    Расположение каналов : Front: L R
    Частота : 44, 1 КГц
    Метод сжатия : С потерями
    Размер потока : 3, 58 Мбайт (9%)

    Скриншоты



    Скриншоты



    Залил: Jokerzv

    Онлайн видео Кое-что задаром (2016) WEBRip 1080p


    Размер скачиваемого торрента: 40.37 MB (42328323 Bytes)

    Кое-что задаром (2016) WEBRip 1080p | Трейлер
    загрузка...
    Рейтинг →
     (голосов: 1, оценка 5/5, голосовать можно 1 раз )

    Другие торренты по теме:

  • А теперь кое-что... / And Now for Something Completely Different (1971) BDRip (AVC) от MediaClub | P, A
  • Монти Пайтон: А теперь кое-что совсем другое / Monty Pythons And Now (1971) DVDRip от Brazzass
  • Кое-что о девушках / Some Girl (1998) DVDRip скачать через торрент бесплатно
  • Хочу тебе кое-что сказать / Quelque chose te dire (2009) DVDRip | P скачать через торрент бесплатно
  • Кое-что ещё / Anything Else (2003) DVDRip
  • Кое-что из губернской жизни / 1983 / РУ / SATRip
  • Кое-что из губернской жизни / 1983 / РУ / DVDRip


    • Комментарии (0):

      Информация

      Информация

        Посетители, находящиеся в группе Гости, не могут оставлять комментарии в данной новости.

        ↓ Меню



        ↓ Опрос

        А Вы добавили сайт в закладки?
        Да
        Не


        Top 10 за месяц (Фильмы)