.
Авторизация | Регистрация
Хочешь лучшие торренты? Добавь свой email!
Добавить
» » Стажер / The Intern (2015) WEBRip 1080p | Трейлер скачать торрент бесплатно




    Стажер / The Intern (2015) WEBRip 1080p | Трейлер скачать торрент бесплатно

    Опубликовал: Админ | Дата: 26-05-2015, 15:01 | Просмотров: 308


    Создали в: 2015
    Создали в: США
    Категория жанра: Комедия
    Перевод текста: Дублированный
    Главный режиссер: Нэнси Майерс
    Продюсеры: Джейсон Блум, Скотт Дерриксон, Брайан Кэвэна-Джонс
    Актеры: Энн Хэтэуэй, Роберт Де Ниро, Адам Дивайн, Нат Вулф, Андерс Холм, Рене Руссо, Дрена Де Ниро, Рейд Скотт, Линда Лавин, Эндрю Рэннеллс
    Описание фильма:
    70-летний вдовец Бен Уитакер обнаруживает, что выход на пенсию — еще не конец. Пользуясь случаем, он становится старшим стажером на сайте моды под руководством Джулс Остин.
    Дата мировой премьеры: 23 сентября 2015
    Дата российской премьеры: 24 сентября 2015

    Время просмотра: 00: 02: 30
    Качество фильма видео: WEBRip
    Информация о видеокодек: MPEG-4 AVC/H.264
    Битрейт видео: 2748 Кбит/сек
    Размер скачиваемого торрента кадра: 1920x1080
    Информация о звукекодек: AC3 5.1
    Битрейт аудио: 254 Кбит/сек
    MediaInfo:

    Общее
    Полное имя : Стажер Русский Трейлер (2015).mp4
    Формат : MPEG-4
    Профиль формата : Base Media
    Идентификатор кодека : isom
    Размер файла : 53, 9 Мбайт
    Продолжительность : 2 м. 30 с.
    Общий поток : 3007 Кбит/сек
    Программа кодирования : Lavf56.19.100
    Видео
    Идентификатор : 1
    Формат : AVC
    Формат/Информация : Advanced Video Codec
    Профиль формата : High@L4
    Параметр CABAC формата : Да
    Параметр ReFrames формата : 2 кадра
    Идентификатор кодека : avc1
    Идентификатор кодека/Информация : Advanced Video Coding
    Продолжительность : 2 м. 30 с.
    Битрейт : 2748 Кбит/сек
    Ширина : 1920 пикселей
    Высота : 1080 пикселей
    Соотношение сторон : 16: 9
    Режим частоты кадров : Переменный
    Частота кадров : 23, 976 кадра/сек
    Минимальная частота кадров : 23, 974 кадра/сек
    Максимальная частота кадров : 23, 981 кадра/сек
    Цветовое пространство : YUV
    Субдискретизация насыщенности : 4: 2: 0
    Битовая глубина : 8 бит
    Тип развёртки : Прогрессивная
    Бит/(Пиксели*Кадры) : 0.055
    Размер потока : 49, 3 Мбайт (91%)
    Аудио
    Идентификатор : 2
    Формат : AAC
    Формат/Информация : Advanced Audio Codec
    Профиль формата : LC
    Идентификатор кодека : 40
    Продолжительность : 2 м. 30 с.
    Вид битрейта : Постоянный
    Битрейт : 254 Кбит/сек
    Каналы : 2 канала
    Расположение каналов : Front: L R
    Частота : 44, 1 КГц
    Метод сжатия : С потерями
    Размер потока : 4, 55 Мбайт (8%)

    Скриншоты



    Скриншоты



    Залил: Jokerzv

    Онлайн видео Стажер


    Размер скачиваемого торрента: 53.94 MB (56564120 Bytes)

    Стажер/The Intern (2015) WEBRip 1080p | Трейлер
    загрузка...
    Рейтинг →
     (голосов: 1, оценка 4/5, голосовать можно 1 раз )

    Другие торренты по теме:

  • Стажер / Kept (2001) DVDRip | P2 скачать через торрент бесплатно
  • Стажер (2015) качество HDRip лицензия
  • Стажер / The Intern (2015) WEB-DLRip | Чистый звук
  • Стажер / The Intern (2015) WEB-DL 720p | Чистый звук
  • Стажер / The Intern (2015) WEB-DLRip от AleksSin | Чистый звук
  • Стажер / The Intern (2015) WEB-DLRip от AleksSin | iTunes
  • Стажер / The Intern (2015) BDRip 1080p | iTunes
  • Стажер / The Intern (2015) BDRip 1080p | Лицензия


    • Комментарии (0):

      Информация

      Информация

        Посетители, находящиеся в группе Гости, не могут оставлять комментарии в данной новости.

        ↓ Меню



        ↓ Опрос

        А Вы добавили сайт в закладки?
        Да
        Не


        Top 10 за месяц (Фильмы)