.
Авторизация | Регистрация
Хочешь лучшие торренты? Добавь свой email!
Добавить
» » Город грехов / Sin City (2005) BDRip 720p от KinoGadget | iPad скачать торрент бесплатно




    Город грехов / Sin City (2005) BDRip 720p от KinoGadget | iPad скачать торрент бесплатно

    Опубликовал: Админ | Дата: 26-05-2015, 00:01 | Просмотров: 176


    Создали в: 2005
    Снималось в: США
    Категория жанра: боевик, триллер, криминал, детектив
    Время просмотра: 02: 04: 02
    Перевод текста: Дублированный
    Главный режиссер: Фрэнк Миллер, Роберт Родригес, Квентин Тарантино

    Актеры
    Джессика Альба, Брюс Уиллис, Клайв Оуэн, Микки Рурк, Девон Аоки, Алексис Бледел, Пауэрс Бут, Розарио Доусон, Бенисио Дель Торо, Джейсон Дуглас, Майкл Кларк Дункан, Томми Флэнеган, Карла Гуджино, Рутгер Хауэр, Джош Хартнетт, Никки Кэт, Джейми Кинг, Майкл Мэдсен, Джейсон МакДональд, Бриттани Мёрфи, Марли Шелтон, Ник Стал, Патриция Вонне, Элайджа Вуд, Джессика Хейл
    Описание: Город грехов — это адская бездна преступлений. Один из его жителей пытается найти убийцу своей подруги. Другой, фотограф, случайно становится свидетелем убийства полицейского и старается скрыть преступление. Спуститесь по глухому переулку города, и вы найдете кое-что еще. В Городе грехов полиция коррумпирована и улицы смертельно опасны…

    Информация о видео кодек: MPEG-4 AVC
    Качество фильма: BDRip 720p
    Параметры Видео: 1280x720, 23.976 fps; ~2 734 kbps avg
    Параметры Звука (русский): 44.1 KHz, AAC, ~150.00 kbps avg, 2ch
    Параметры Звука (английский): 44.1 KHz, AAC, ~150.00 kbps avg, 2ch
    Тип видео: mp4
    Автор рипа:
    Релиз-группа:

    Meta Tags


    MI
    General
    Complete name : E: Gorod.Grehov.2005.D.BDRip.720p_KinoGadget.mp4
    Format : MPEG-4
    Format profile : Base Media
    Codec ID : isom
    File size : 2.64 GiB
    Duration : 2h 4mn
    Overall bit rate mode : Variable
    Overall bit rate : 3 044 Kbps
    Movie name : Город грехов
    Performer : Фрэнк Миллер, Роберт Родригес, Квентин Тарантино
    Genre : Crime, Thriller
    ContentType : Short Film
    Recorded date : 2005
    Encoded date : UTC 2015-05-25 17: 46: 44
    Tagged date : UTC 2015-05-25 17: 58: 30
    Cover : Yes
    ContentRating : mpaa|R|400|
    LongDeion : Город грехов — это адская бездна преступлений. Один из его жителей пытается найти убийцу своей подруги. Другой, фотограф, случайно становится свидетелем убийства полицейского и старается скрыть преступление. Спуститесь по глухому переулку города, и вы найдете кое-что еще. В Городе грехов полиция коррумпирована и улицы смертельно опасны…
    HDVideo : Yes
    Video
    ID : 1
    Format : AVC
    Format/Info : Advanced Video Codec
    Format profile : High@L4.1
    Format settings, CABAC : Yes
    Format settings, ReFrames : 9 frames
    Codec ID : avc1
    Codec ID/Info : Advanced Video Coding
    Duration : 2h 4mn
    Bit rate : 2 734 Kbps
    Maximum bit rate : 20.1 Mbps
    Width : 1 280 pixels
    Height : 720 pixels
    Display aspect ratio : 16: 9
    Frame rate mode : Constant
    Frame rate : 23.976 fps
    Color space : YUV
    Chroma subsampling : 4: 2: 0
    Bit depth : 8 bits
    Scan type : Progressive
    Bits/(Pixel*Frame) : 0.124
    Stream size : 2.37 GiB (90%)
    Writing library : x264 core 146 r2538 121396c
    Encoding settings : cabac=1/ref=9/deblock=1: -1: -1/analyse=0x3: 0x133/me=umh/subme=9/psy=1/psy_rd=1.00: 0.20/mixed_ref=1/me_range=24/chroma_me=1/trellis=2/8x8dct=1/cqm=0/deadzone=21, 11/fast_pskip=1/chroma_qp_offset=-3/threads=3/lookahead_threads=1/sliced_threads=0/nr=0/decimate=1/interlaced=0/bluray_compat=0/constrained_intra=0/bframes=4/b_pyramid=2/b_adapt=2/b_bias=0/direct=3/weightb=1/open_gop=0/weightp=2/keyint=240/keyint_min=23/scenecut=40/intra_refresh=0/rc_lookahead=60/rc=crf/mbtree=1/crf=21.0/qcomp=0.60/qpmin=0/qpmax=69/qpstep=4/ip_ratio=1.40/aq=1: 1.00
    Encoded date : UTC 2015-05-25 03: 28: 57
    Tagged date : UTC 2015-05-25 17: 48: 20
    Audio #1
    ID : 2
    Format : AAC
    Format/Info : Advanced Audio Codec
    Format profile : LC
    Codec ID : 40
    Duration : 2h 4mn
    Bit rate mode : Variable
    Bit rate : 150 Kbps
    Maximum bit rate : 233 Kbps
    Channel count : 2 channels
    Channel positions : Front: L R
    Sampling rate : 44.1 KHz
    Compression mode : Lossy
    Stream size : 133 MiB (5%)
    Language : Russian
    Encoded date : UTC 2015-05-25 17: 47: 59
    Tagged date : UTC 2015-05-25 17: 48: 20
    Audio #2
    ID : 3
    Format : AAC
    Format/Info : Advanced Audio Codec
    Format profile : LC
    Codec ID : 40
    Duration : 2h 4mn
    Bit rate mode : Variable
    Bit rate : 150 Kbps
    Maximum bit rate : 246 Kbps
    Channel count : 2 channels
    Channel positions : Front: L R
    Sampling rate : 44.1 KHz
    Compression mode : Lossy
    Stream size : 133 MiB (5%)
    Language : English
    Encoded date : UTC 2015-05-25 17: 48: 09
    Tagged date : UTC 2015-05-25 17: 48: 20

    Скриншоты


    Залил: KinoGadget

    Онлайн видео Город грехов


    Размер скачиваемого торрента: 2.64 GB (2832254934 Bytes)

    Город грехов/Sin City (2005) BDRip 720p от KinoGadget | iPad
    загрузка...
    Рейтинг →
     (голосов: 1, оценка 5/5, голосовать можно 1 раз )

    Другие торренты по теме:

  • Город грехов / Sin city (2005) BDrip 720p от R.G. 48 seconds от zlofenix
  • OST - Город грехов / Sin City (2005) MP3
  • Город грехов / Sin City (2005) HDRip-AVC | D
  • Город грехов / Sin City (2005) DVD5 | D
  • Город грехов / Sin City (2005) BDRip 720p от IIIKOJIO3ABP | GER Transfer скачать через торрент бесплатно
  • Город грехов 2 WEBDLRip (2014) скачать через торрент бесплатно
  • Город грехов / Sin City (2005) BDRip от HQCLUB скачать через торрент бесплатно
  • Город грехов 2: Женщина, ради которой стоит убивать / Sin City: A Dame to Kill For скачать через торрент бесплатно


    • Комментарии (0):

      Информация

      Информация

        Посетители, находящиеся в группе Гости, не могут оставлять комментарии в данной новости.

        ↓ Меню



        ↓ Опрос

        А Вы добавили сайт в закладки?
        Да
        Не


        Top 10 за месяц (Фильмы)