.
Авторизация | Регистрация
Хочешь лучшие торренты? Добавь свой email!
Добавить
» » Реверс / Backmask (2015) WEB-DLRip-AVC | L1 скачать торрент бесплатно




    Реверс / Backmask (2015) WEB-DLRip-AVC | L1 скачать торрент бесплатно

    Опубликовал: Админ | Дата: 25-05-2015, 21:03 | Просмотров: 113


    Создали в: США, Vicarious Entertainment
    Категория жанра: Триллер, Ужасы
    Время просмотра: 01: 31: 38
    Перевод текста: любительский (одноголосый закадровый) datynet
    Субтитры: Русские
    Главный режиссер: Маркус Ниспел
    Актеры: Стивен Лэнг, Бретт Дир, Бриттани Каррен, Гейдж Голайтли, Кевин Чэпмен, Келли Блатц, Мередит Прунти, Дженнифер Сайпс, Эшли Трамонте, Джаррет ЛеМастер

    Описание фильма

    От режиссера Пятница 13-е и Техасская резня бензопилой и производителей Паранормального явления приходит новый ужас. Во время разгульной и наркотической вечеринки в заброшенном сумасшедшем доме, известном ужасным лечением своих пациентов, группа обычных подростков решила поэкспериментировать с оккультизмом. Подобный эксперимент загадочно привёл к насильственному овладеванию дьяволом их разумом. В попытке найти помощь, подростки бросаются бежать, только не тут-то было. Они оказались заперты без каких-либо средств связи. Страсти вспыхивают, дружба сломана и в попытке спасти одного из своих друзей, которым овладел демон, любители вечеринок попытались выполнить обряд экзорцизма. Вместо того чтобы решить проблему, из-за своей тупости, они развязали еще более мощного и мстительного духа, имеющего единственное желание - умертвить их всех. Единственный шанс подростков на выживание - это раскрыть страшную тайну сумасшедшего дома и найти путь оттуда, прежде чем это станет слишком поздно.
    Качество фильма: WEB-DLRip
    Информация о видео: AVC, 1024x576 (16: 9), 23.976 fps, 1 899 Kbps (0.134 bit/pixel)
    Информация о звуке: AC-3, 48.0 KHz, 6 ch, 384 Kbps, CBR (Russian)
    Релиз подготовил: FAGOT100
    Сэмпл
    MediaInfo:
    Формат : Matroska
    Версия формата : Version 2
    Размер файла : 1, 46 Гбайт
    Продолжительность : 1 ч. 31 м.
    Общий поток : 2284 Кбит/сек
    Дата кодирования : UTC 2015-05-25 15: 14: 58
    Программа кодирования : mkvmerge v5.3.0 (;I could have danced;) built on Feb 9 2012 10: 38: 07
    Библиотека кодирования : libebml v1.2.3 + libmatroska v1.3.0
    Attachment : Yes
    Видео
    Идентификатор : 1
    Формат : AVC
    Формат/Информация : Advanced Video Codec
    Профиль формата : High@L4.1
    Параметр CABAC формата : Да
    Параметр ReFrames формата : 10 кадров
    Идентификатор кодека : V_MPEG4/ISO/AVC
    Продолжительность : 1 ч. 31 м.
    Битрейт : 1899 Кбит/сек
    Ширина : 1024 пикселя
    Высота : 576 пикселей
    Соотношение сторон : 16: 9
    Режим частоты кадров : Постоянный
    Частота кадров : 23, 976 кадра/сек
    Цветовое пространство : YUV
    Субдискретизация насыщенности : 4: 2: 0
    Битовая глубина : 8 бит
    Тип развёртки : Прогрессивная
    Бит/(Пиксели*Кадры) : 0.134
    Размер потока : 1, 19 Гбайт (81%)
    Библиотека кодирования : x264 core 142 r2431 ac76440
    Настройки программы : cabac=1/ref=10/deblock=1: -3: -3/analyse=0x3: 0x133/me=umh/subme=11/psy=1/psy_rd=1.00: 0.00/mixed_ref=1/me_range=32/chroma_me=1/trellis=2/8x8dct=1/cqm=0/deadzone=21, 11/fast_pskip=1/chroma_qp_offset=-2/threads=12/lookahead_threads=2/sliced_threads=0/nr=0/decimate=0/interlaced=0/bluray_compat=0/constrained_intra=0/bframes=8/b_pyramid=2/b_adapt=2/b_bias=0/direct=3/weightb=1/open_gop=0/weightp=2/keyint=240/keyint_min=23/scenecut=40/intra_refresh=0/rc=2pass/mbtree=0/bitrate=1899/ratetol=1.0/qcomp=0.60/qpmin=0/qpmax=69/qpstep=4/cplxblur=20.0/qblur=0.5/ip_ratio=1.40/pb_ratio=1.30/aq=1: 1.00
    Язык : English
    Default : Да
    Forced : Нет
    Аудио
    Идентификатор : 2
    Формат : AC-3
    Формат/Информация : Audio Coding 3
    Расширение режима : CM (complete main)
    Параметр Endianness формата : Big
    Идентификатор кодека : A_AC3
    Продолжительность : 1 ч. 31 м.
    Вид битрейта : Постоянный
    Битрейт : 384 Кбит/сек
    Каналы : 6 каналов
    Расположение каналов : Front: L C R, Side: L R, LFE
    Частота : 48, 0 КГц
    Битовая глубина : 16 бит
    Метод сжатия : С потерями
    Размер потока : 252 Мбайт (17%)
    Заголовок : datynet
    Язык : Russian
    Default : Да
    Forced : Нет
    Текст
    Идентификатор : 3
    Формат : UTF-8
    Идентификатор кодека : S_TEXT/UTF8
    Идентификатор кодека/Информация : UTF-8 Plain Text
    Заголовок : anton1
    Язык : Russian
    Default : Нет
    Forced : Нет
    Меню
    00: 00: 00.000 : en: Chapter 1
    00: 08: 13.000 : en: Chapter 2
    00: 15: 09.000 : en: Chapter 3
    00: 23: 06.000 : en: Chapter 4
    00: 30: 52.000 : en: Chapter 5
    00: 38: 27.000 : en: Chapter 6
    00: 46: 16.000 : en: Chapter 7
    00: 54: 11.000 : en: Chapter 8
    01: 01: 07.000 : en: Chapter 9
    01: 09: 48.000 : en: Chapter 10
    01: 17: 37.000 : en: Chapter 11
    01: 24: 28.000 : en: Chapter 12

    Скриншоты:


    Онлайн видео Реверс


    Размер скачиваемого торрента: 1.46 GB (1570115924 Bytes)

    Реверс/Backmask (2015) WEB-DLRip-AVC | L1
    загрузка...
    Рейтинг →
     (голосов: 1, оценка 5/5, голосовать можно 1 раз )

    Другие торренты по теме:

  • Сергей Лукьяненко, Александр Громов - Реверс (2014) MP3
  • Сергей Лукьяненко, Александр Николаевич Громов - Реверс (2014) fb2, epub
  • Реверс 666 (2015) HDRip
  • Реверс / Backmask (2015) WEB-DLRip от Некул | L1
  • Реверс 666 / Backmask (2015) HDRip | Чистый звук


    • Комментарии (0):

      Информация

      Информация

        Посетители, находящиеся в группе Гости, не могут оставлять комментарии в данной новости.

        ↓ Меню



        ↓ Опрос

        А Вы добавили сайт в закладки?
        Да
        Не


        Top 10 за месяц (Фильмы)