.
Авторизация | Регистрация
Хочешь лучшие торренты? Добавь свой email!
Добавить
» » На север через северо-запад / North by Northwest (1959) BDRip 720p от HQ-ViDEO | P скачать торрент бесплатно




    На север через северо-запад / North by Northwest (1959) BDRip 720p от HQ-ViDEO | P скачать торрент бесплатно

    Опубликовал: Админ | Дата: 25-05-2015, 15:02 | Просмотров: 114

    На север через северо-запад/North by Northwest (1959) BDRip 720p
    Релиз от HQ-ViDEO

    Детально о кино
    Русское название: На север через северо-запад
    Русское название в мировом прокате: North by Northwest
    Создали в: 1959
    Категория жанра: триллер, детектив, приключения
    Главный режиссер: Альфред Хичкок /Alfred Hitchcock/

    Актеры
    Кэри Грант /Cary Grant/, Эва Мари Сейнт/Eva Marie Saint/, Джеймс Мейсон /James Mason/, Джесси Ройс Лэндис /Jessie Royce Landis/, Лео Кэрролл /Leo G. Carroll/, Джозефин Хатчисон /Josephine Hutchinson/, Филип Оубер /Philip Ober/, Мартин Ландау /Martin Landau/...

    Сюжет фильма

    Однажды успешного рекламного агента Роджера Торнхилла ошибочно принимают за агента разведки Кэплана, которого никто не знает в лицо, и хотят его убрать. Обескураженный Роджер пытается бежать. В вагоне-ресторане поезда милая женщина по имени Ив помогает ему скрыться от преследователей...

    Снималось в: США
    Время просмотра: 02: 16: 25
    Перевод текста: Русский профессиональный, многоголосый (R5) + Оригинальная, английская дорожка
    Файл
    Кодек для видео: MKV, H.264
    Качество фильма: BDRip 720p (Source: Blu-ray Disc)
    Информация о видео: 5797 kbps; 0.262 bit/pixel; 1280 x 720; 16: 9; 23.976 fps
    Информация о звуке #1: AC3 Dolby Digital; 448.00 kbps, 6 Ch - MVO
    Информация о звуке #2: AC3 Dolby Digital; 448.00 kbps, 6 Ch - ENG
    Субтитры: Русские, Английские.
    Размер скачиваемого торрента: 6.51 GB
    SAMPLE/скачать с Яндекс Диск
    MediaInfo

    General
    Complete name : Na.Sever.Cherez.Severo.Zapad.1959.DUAL.BDRip.720p.h264.AC3.-HQ-ViDEO.mkv
    Format : Matroska
    File size : 6.51 GiB
    Duration : 2h 16mn
    Overall bit rate : 6 829 Kbps
    Movie name : North by Northwest (1959)
    Encoded date : UTC 2010-09-13 05: 43: 26
    Writing application : mkvmerge v3.3.0 (;Language;) built on Mar 24 2010 14: 59: 24
    Writing library : libebml v0.8.0 + libmatroska v0.9.0
    Video
    ID : 1
    Format : AVC
    Format/Info : Advanced Video Codec
    Format profile : High@L4.1
    Format settings, CABAC : Yes
    Format settings, ReFrames : 6 frames
    Muxing mode : Container profile=Unknown@4.1
    Codec ID : V_MPEG4/ISO/AVC
    Duration : 2h 16mn
    Bit rate : 5 797 Kbps
    Width : 1 280 pixels
    Height : 720 pixels
    Display aspect ratio : 16: 9
    Frame rate : 23.976 fps
    Resolution : 8 bits
    Colorimetry : 4: 2: 0
    Scan type : Progressive
    Bits/(Pixel*Frame) : 0.262
    Stream size : 5.52 GiB (85%)
    Title : Encoded by GYN
    Audio #1
    ID : 2
    Format : AC-3
    Format/Info : Audio Coding 3
    Codec ID : A_AC3
    Duration : 2h 16mn
    Bit rate mode : Constant
    Bit rate : 448 Kbps
    Channel(s) : 6 channels
    Channel positions : Front: L C R, Surround: L R, LFE
    Sampling rate : 48.0 KHz
    Stream size : 437 MiB (7%)
    Title : MVO
    Language : Russian
    Audio #2
    ID : 3
    Format : AC-3
    Format/Info : Audio Coding 3
    Codec ID : A_AC3
    Duration : 2h 16mn
    Bit rate mode : Constant
    Bit rate : 448 Kbps
    Channel(s) : 6 channels
    Channel positions : Front: L C R, Surround: L R, LFE
    Sampling rate : 48.0 KHz
    Stream size : 437 MiB (7%)
    Title : Original
    Language : English
    Text #1
    ID : 4
    Format : UTF-8
    Codec ID : S_TEXT/UTF8
    Codec ID/Info : UTF-8 Plain Text
    Language : Russian
    Text #2
    ID : 5
    Format : UTF-8
    Codec ID : S_TEXT/UTF8
    Codec ID/Info : UTF-8 Plain Text
    Language : English





    Релиз подготовил: HQ-ViDEO
    Автор рипа: GYN

    Онлайн видео На север через северо-запад


    Размер скачиваемого торрента: 6.51 GB (6988099209 Bytes)

    На север через северо-запад/North by Northwest (1959) BDRip 720p от HQ-ViDEO | P
    загрузка...
    Рейтинг →
     (голосов: 1, оценка 4/5, голосовать можно 1 раз )

    Другие торренты по теме:



      Комментарии (0):

      Информация

      Информация

        Посетители, находящиеся в группе Гости, не могут оставлять комментарии в данной новости.

        ↓ Меню



        ↓ Опрос

        А Вы добавили сайт в закладки?
        Да
        Не


        Top 10 за месяц (Фильмы)