.
Авторизация | Регистрация
Хочешь лучшие торренты? Добавь свой email!
Добавить
» » Фокус / Focus (2015) BDRip 720p от KinoGadget | iPad скачать торрент бесплатно




    Фокус / Focus (2015) BDRip 720p от KinoGadget | iPad скачать торрент бесплатно

    Опубликовал: Админ | Дата: 23-05-2015, 21:03 | Просмотров: 149


    Создали в: 2015
    Снималось в: США, Аргентина
    Категория жанра: драма, мелодрама, комедия, криминал
    Время просмотра: 01: 44: 44
    Перевод текста: Дублированный
    Главный режиссер: Гленн Фикарра, Джон Рекуа

    Актеры
    Уилл Смит, Марго Робби, Адриан Мартинес, Джералд МакРэйни, Родриго Санторо, Б. Д. Вонг, Бреннан Браун, Роберт Тейлор (II), Грифф Ферст, Стефани Онор, Дэвид Стэнфорд, Доминик Фумуса, Стив Ким, Дон Йессо, Хуан Минухин, Хано Сейтун, Мелания Ленуар, Пьетро Джан, Жустина Бустос, Паула Браска
    Описание: История об опытном мошеннике, который влюбляется в девушку, делающую первые шаги на поприще нелегального отъема средств у граждан. Отношения становятся для них проблемой, когда обнаруживается, что романтика мешает их нечестному бизнесу.

    Информация о видео кодек: MPEG-4 AVC
    Качество фильма: BDRip 720p
    Параметры Видео: 1280x720, 23.976 fps; ~1 805 kbps avg
    Параметры Звука: 44.1 KHz, AAC, ~149.00 kbps avg, 2ch
    Тип видео: mp4
    Автор рипа:
    Релиз-группа:

    Meta Tags


    MI
    General
    Complete name : E: Fokus.2015.D.BDRip.720p_KinoGadget.mp4
    Format : MPEG-4
    Format profile : Base Media
    Codec ID : isom
    File size : 1.44 GiB
    Duration : 1h 44mn
    Overall bit rate mode : Variable
    Overall bit rate : 1 963 Kbps
    Movie name : Фокус
    Performer : Гленн Фикарра, Джон Рекуа
    Genre : Comedy, Crime, Drama
    ContentType : Short Film
    Recorded date : 2015
    Encoded date : UTC 2015-05-23 13: 33: 04
    Tagged date : UTC 2015-05-23 13: 42: 05
    Cover : Yes
    ContentRating : mpaa|R|400|
    LongDeion : История об опытном мошеннике, который влюбляется в девушку, делающую первые шаги на поприще нелегального отъема средств у граждан. Отношения становятся для них проблемой, когда обнаруживается, что романтика мешает их нечестному бизнесу.
    HDVideo : Yes
    Video
    ID : 1
    Format : AVC
    Format/Info : Advanced Video Codec
    Format profile : High@L4.1
    Format settings, CABAC : Yes
    Format settings, ReFrames : 9 frames
    Codec ID : avc1
    Codec ID/Info : Advanced Video Coding
    Duration : 1h 44mn
    Bit rate : 1 805 Kbps
    Maximum bit rate : 11.5 Mbps
    Width : 1 280 pixels
    Height : 720 pixels
    Display aspect ratio : 16: 9
    Frame rate mode : Constant
    Frame rate : 23.976 fps
    Color space : YUV
    Chroma subsampling : 4: 2: 0
    Bit depth : 8 bits
    Scan type : Progressive
    Bits/(Pixel*Frame) : 0.082
    Stream size : 1.32 GiB (92%)
    Writing library : x264 core 142 r2431 ac76440
    Encoding settings : cabac=1/ref=9/deblock=1: -1: -1/analyse=0x3: 0x133/me=umh/subme=10/psy=1/psy_rd=1.00: 0.20/mixed_ref=1/me_range=24/chroma_me=1/trellis=2/8x8dct=1/cqm=0/deadzone=21, 11/fast_pskip=1/chroma_qp_offset=-3/threads=1/lookahead_threads=1/sliced_threads=0/nr=0/decimate=1/interlaced=0/bluray_compat=0/constrained_intra=0/bframes=4/b_pyramid=2/b_adapt=2/b_bias=0/direct=3/weightb=1/open_gop=0/weightp=2/keyint=240/keyint_min=23/scenecut=40/intra_refresh=0/rc_lookahead=60/rc=crf/mbtree=1/crf=21.0/qcomp=0.60/qpmin=0/qpmax=69/qpstep=4/ip_ratio=1.40/aq=1: 1.00
    Encoded date : UTC 2015-05-19 23: 05: 21
    Tagged date : UTC 2015-05-23 13: 33: 38
    Audio
    ID : 2
    Format : AAC
    Format/Info : Advanced Audio Codec
    Format profile : LC
    Codec ID : 40
    Duration : 1h 44mn
    Bit rate mode : Variable
    Bit rate : 149 Kbps
    Maximum bit rate : 215 Kbps
    Channel count : 2 channels
    Channel positions : Front: L R
    Sampling rate : 44.1 KHz
    Compression mode : Lossy
    Stream size : 112 MiB (8%)
    Language : Russian
    Encoded date : UTC 2015-05-23 13: 33: 25
    Tagged date : UTC 2015-05-23 13: 33: 38

    Скриншоты


    Залил: KinoGadget
    Размер скачиваемого торрента: 1.44 GB (1541892467 Bytes)

    Фокус/Focus (2015) BDRip 720p от KinoGadget | iPad
    загрузка...
    Рейтинг →
     (голосов: 1, оценка 5/5, голосовать можно 1 раз )

    Другие торренты по теме:

  • Фокус-покус / Hocus Pocus (1993) BDRip 1080p
  • Без обмана: Фокус с креветками (2013) IPTVRip
  • Фокус (2015)
  • Фокус / Focus (2015) CAMRip от UNIONGANG
  • Фокус / Focus (2015) WEBRip | Звук с CAMRip
  • Фокус / Focus (2015) HDRip | Лицензия *
  • Фокус / Focus (2015) WEB-DLRip | Чистый звук
  • Фокус / Focus (2015) WEB-DLRip от Scarabey | iTunes


    • Комментарии (0):

      Информация

      Информация

        Посетители, находящиеся в группе Гости, не могут оставлять комментарии в данной новости.

        ↓ Меню



        ↓ Опрос

        А Вы добавили сайт в закладки?
        Да
        Не


        Top 10 за месяц (Фильмы)