.
Авторизация | Регистрация
Хочешь лучшие торренты? Добавь свой email!
Добавить
» » Человеческая многоножка 3 / The Human Centipede III (Final Sequence) (2015) WEB-DL 720p | L2 скачать торрент бесплатно




    Человеческая многоножка 3 / The Human Centipede III (Final Sequence) (2015) WEB-DL 720p | L2 скачать торрент бесплатно

    Опубликовал: Админ | Дата: 23-05-2015, 21:03 | Просмотров: 124


    Детально о кино
    Русское название: Человеческая многоножка 3
    Русское название в мировом прокате: The Human Centipede III (Final Sequence)
    Создали в: 2015
    Категория жанра: ужасы
    Главный режиссер: Том Сикс

    Актеры
    Эрик Робертс, Бри Олсон, Том ’Тайни’ Листер мл., Роберт ЛаСардо, Том Сикс, Клэйтон Ронер, Лоуренс Р. Харви, Майкл Флорес, Дитер Лазер, Джей Таваре

    Сюжет фильма
    Надзиратель беспокойной тюрьмы, у которого не получается заслужить уважение заключенных и губернатора штата, решается на внедрение революционного наказания, способного не только навести порядок в тюремной системе, но и сэкономить миллионы долларов, — в буквальном смысле поставить заключенных на колени, сшив их в гигантскую многоножку из 500 человек.


    Снималось в: США
    Время просмотра: 01: 42: 40
    Тип перевода: Любительское (двухголосое) den904 и DeadSno, перевод chup

    Файл
    Тип видео: MKV
    Качество фильма: WEB-DL 720p
    Информация о видео: 3970 kb/s, 1280x542
    Информация о звуке: Russian: AC3, 192 kb/s (2 ch)/English: AC3, 384 kb/s (6 ch)
    Субтитры: English
    MI

    Format : Matroska
    Format version : Version 4/Version 2
    File size : 3.33 GiB
    Duration : 1h 42mn
    Overall bit rate : 4 638 Kbps
    Encoded date : UTC 2015-05-23 16: 01: 07
    Writing application : mkvmerge v6.1.0 (;Old Devil;) built on Mar 4 2013 09: 10: 42
    Writing library : libebml v1.3.0 + libmatroska v1.4.0
    Video
    ID : 1
    Format : AVC
    Format/Info : Advanced Video Codec
    Format profile : Main@L3.1
    Format settings, CABAC : No
    Format settings, ReFrames : 2 frames
    Codec ID : V_MPEG4/ISO/AVC
    Duration : 1h 42mn
    Bit rate : 3 970 Kbps
    Width : 1 280 pixels
    Height : 542 pixels
    Display aspect ratio : 2.35: 1
    Frame rate : 24.000 fps
    Color space : YUV
    Chroma subsampling : 4: 2: 0
    Bit depth : 8 bits
    Scan type : Progressive
    Bits/(Pixel*Frame) : 0.238
    Stream size : 2.85 GiB (86%)
    Language : English
    Default : Yes
    Forced : No
    Color primaries : BT.709-5, BT.1361, IEC 61966-2-4, SMPTE RP177
    Transfer characteristics : BT.709-5, BT.1361
    Matrix coefficients : BT.709-5, BT.1361, IEC 61966-2-4 709, SMPTE RP177
    Audio #1
    ID : 2
    Format : AC-3
    Format/Info : Audio Coding 3
    Mode extension : CM (complete main)
    Format settings, Endianness : Big
    Codec ID : A_AC3
    Duration : 1h 42mn
    Bit rate mode : Constant
    Bit rate : 192 Kbps
    Channel(s) : 2 channels
    Channel positions : Front: L R
    Sampling rate : 48.0 KHz
    Bit depth : 16 bits
    Compression mode : Lossy
    Stream size : 141 MiB (4%)
    Language : Russian
    Default : Yes
    Forced : No
    Audio #2
    ID : 3
    Format : AC-3
    Format/Info : Audio Coding 3
    Mode extension : CM (complete main)
    Format settings, Endianness : Big
    Codec ID : A_AC3
    Duration : 1h 42mn
    Bit rate mode : Constant
    Bit rate : 384 Kbps
    Channel(s) : 6 channels
    Channel positions : Front: L C R, Side: L R, LFE
    Sampling rate : 48.0 KHz
    Bit depth : 16 bits
    Compression mode : Lossy
    Stream size : 282 MiB (8%)
    Language : English
    Default : No
    Forced : No
    Text
    ID : 4
    Format : UTF-8
    Codec ID : S_TEXT/UTF8
    Codec ID/Info : UTF-8 Plain Text
    Language : English
    Default : No
    Forced : No
    Menu
    00: 00: 00.000 : en: 1
    00: 14: 40.000 : en: 2
    00: 25: 19.000 : en: 3
    00: 35: 13.000 : en: 4
    00: 46: 40.000 : en: 5
    00: 58: 55.000 : en: 6
    01: 14: 43.000 : en: 7
    01: 23: 15.000 : en: 8
    01: 39: 22.000 : en: 9
    Скриншоты





    Онлайн видео Человеческая многоножка 3


    Размер скачиваемого торрента: 3.33 GB (3571823645 Bytes)

    Человеческая многоножка 3/The Human Centipede III (Final Sequence) (2015) WEB-DL 720p | L2
    загрузка...
    Рейтинг →
     (голосов: 1, оценка 4/5, голосовать можно 1 раз )

    Другие торренты по теме:

  • Человеческая многоножка 3 / The Human Centipede III (Final Sequence) (2015) WEB-DLRip | L2


    • Комментарии (0):

      Информация

      Информация

        Посетители, находящиеся в группе Гости, не могут оставлять комментарии в данной новости.

        ↓ Меню



        ↓ Опрос

        А Вы добавили сайт в закладки?
        Да
        Не


        Top 10 за месяц (Фильмы)