.
Авторизация | Регистрация
Хочешь лучшие торренты? Добавь свой email!
Добавить
» » Ночной огонёк / Nightlight (2015) WEB-DL 720p | L1 скачать торрент бесплатно




    Ночной огонёк / Nightlight (2015) WEB-DL 720p | L1 скачать торрент бесплатно

    Опубликовал: Админ | Дата: 22-05-2015, 21:02 | Просмотров: 145


    Детально о кино
    Русское название: Ночной огонёк
    Русское название в мировом прокате: Nightlight
    Создали в: 2015
    Категория жанра: ужасы, триллер
    Главный режиссер: Скотт Бек, Брайан Вудс

    Актеры
    Шелби Янг, Хлоя Бриджес, Картер Дженкинс, Митч Хьюер, Тейлор Мерфи, Кайл Фэйн

    Сюжет фильма
    Пятеро друзей решают поиграть в лесу, о котором ходят мрачные легенды. Вскоре мрак начинает овладевать разумом ребят, и лишь ночной огонек послужит для них спасением.


    Снималось в: США/Herrick Entertainment
    Время просмотра: 01: 24: 00
    Тип перевода: Любительское (одноголосое) datynet
    Файл
    Тип видео: MKV
    Качество фильма: WEB-DL 720p
    Информация о видео: 4007 kb/s, 1280x530
    Информация о звуке: Russian: AC3, 192 kb/s (2 ch)/English: AC3, 384 kb/s (6 ch)
    Субтитры: English


    MI

    Format : Matroska
    Format version : Version 4/Version 2
    File size : 2.74 GiB
    Duration : 1h 23mn
    Overall bit rate : 4 676 Kbps
    Encoded date : UTC 2015-05-22 14: 12: 58
    Writing application : mkvmerge v6.1.0 (;Old Devil;) built on Mar 4 2013 09: 10: 42
    Writing library : libebml v1.3.0 + libmatroska v1.4.0
    Video
    ID : 1
    Format : AVC
    Format/Info : Advanced Video Codec
    Format profile : Main@L3.1
    Format settings, CABAC : No
    Format settings, ReFrames : 2 frames
    Codec ID : V_MPEG4/ISO/AVC
    Duration : 1h 23mn
    Bit rate : 4 007 Kbps
    Width : 1 280 pixels
    Height : 530 pixels
    Display aspect ratio : 2.40: 1
    Frame rate : 23.976 fps
    Color space : YUV
    Chroma subsampling : 4: 2: 0
    Bit depth : 8 bits
    Scan type : Progressive
    Bits/(Pixel*Frame) : 0.246
    Stream size : 2.35 GiB (86%)
    Language : English
    Default : Yes
    Forced : No
    Color primaries : BT.709-5, BT.1361, IEC 61966-2-4, SMPTE RP177
    Transfer characteristics : BT.709-5, BT.1361
    Matrix coefficients : BT.709-5, BT.1361, IEC 61966-2-4 709, SMPTE RP177
    Audio #1
    ID : 2
    Format : AC-3
    Format/Info : Audio Coding 3
    Mode extension : CM (complete main)
    Format settings, Endianness : Big
    Codec ID : A_AC3
    Duration : 1h 23mn
    Bit rate mode : Constant
    Bit rate : 192 Kbps
    Channel(s) : 2 channels
    Channel positions : Front: L R
    Sampling rate : 44.1 KHz
    Bit depth : 16 bits
    Compression mode : Lossy
    Stream size : 115 MiB (4%)
    Language : Russian
    Default : Yes
    Forced : No
    Audio #2
    ID : 3
    Format : AC-3
    Format/Info : Audio Coding 3
    Mode extension : CM (complete main)
    Format settings, Endianness : Big
    Codec ID : A_AC3
    Duration : 1h 23mn
    Bit rate mode : Constant
    Bit rate : 384 Kbps
    Channel(s) : 6 channels
    Channel positions : Front: L C R, Side: L R, LFE
    Sampling rate : 48.0 KHz
    Bit depth : 16 bits
    Compression mode : Lossy
    Stream size : 231 MiB (8%)
    Language : English
    Default : No
    Forced : No
    Text
    ID : 4
    Format : UTF-8
    Codec ID : S_TEXT/UTF8
    Codec ID/Info : UTF-8 Plain Text
    Language : English
    Default : No
    Forced : No
    Menu
    00: 00: 00.000 : en: Chapter 1
    00: 02: 31.000 : en: Chapter 2
    00: 13: 19.000 : en: Chapter 3
    00: 24: 06.000 : en: Chapter 4
    00: 33: 48.000 : en: Chapter 5
    00: 43: 44.000 : en: Chapter 6
    00: 54: 22.000 : en: Chapter 7
    01: 03: 49.000 : en: Chapter 8
    01: 15: 31.000 : en: Chapter 9
    01: 20: 11.000 : en: Chapter 10
    Скриншоты


    Онлайн видео Ночной огонёк


    Размер скачиваемого торрента: 2.74 GB (2945850586 Bytes)

    Ночной огонёк/Nightlight (2015) WEB-DL 720p | L1
    загрузка...
    Рейтинг →
     (голосов: 1, оценка 4/5, голосовать можно 1 раз )

    Другие торренты по теме:

  • Ночной огонёк / Nightlight (2015) WEB-DLRip | L1
  • Ночной огонёк / Nightlight (2015) WEB-DLRip от Некул | L1


    • Комментарии (0):

      Информация

      Информация

        Посетители, находящиеся в группе Гости, не могут оставлять комментарии в данной новости.

        ↓ Меню



        ↓ Опрос

        А Вы добавили сайт в закладки?
        Да
        Не


        Top 10 за месяц (Фильмы)