.
Авторизация | Регистрация
Хочешь лучшие торренты? Добавь свой email!
Добавить
» » Институт Аттикус / The Atticus Institute (2015) BDRemux 1080p | iTunes скачать торрент бесплатно




    Институт Аттикус / The Atticus Institute (2015) BDRemux 1080p | iTunes скачать торрент бесплатно

    Опубликовал: Админ | Дата: 21-05-2015, 03:03 | Просмотров: 121



    Детально о кино
    Русское название: Институт Аттикус
    Русское название в мировом прокате: The Atticus Institute
    Создали в: 2015
    Категория жанра: Ужасы, триллер, драма
    Главный режиссер: Крис Спарлинг

    Актеры
    Джулиан Акоста, Энн Бетанкур, Карлос Е. Кампос, Джейк Карпентер, Хит Сентаццо, Брайан Ченоуэт, Ханна Коули, Аарон Крэвен, Динарте де Фрейтас, Лэндалл Гулсби


    Сюжет фильма
    В 70-х годах доктором Генри Уэстом был создан институт Аттикус, в котором доктор Генри Уэст проводил над людьми с паранормальными способностями тесты. Доктор повидал самых различных людей с необычными способностями, но в скором времени у них оказалась Джудит Уистенд. Эта девушка показала самые невероятные способности, что привлекло внимание военных, решивших взять под собственный контроль Аттикус. При просмотре фильма ужасов 2015 - Институт Аттикус зрители увидят, что над Джудит проводилось множество экспериментов. После каждого сеанса ученые понимали, что в девушке заключена злая сила. Так они решают использовать девушку в военных целях. Но они не подумали о существовании силы, одолеть которую непосильно ни одному человеку.



    Снималось в: США/Safran Company
    Время просмотра: 01: 22: 49
    Перевод текста: Профессиональный (полное дублирование)- iTunes

    Файл
    Качество фильма: BDRemux 1080p
    Тип видео: MKV
    Информация о видео: MPEG4/AVC, 22.7 Мбит/сек, 1920х1080 (16: 9), 23.976 кадра/сек
    Информация о звуке 1: AC3, 6 каналов, 384 Кбит/сек | Русский
    Информация о звуке 2: AC3, 6 каналов, 640 Кбит/сек | Английский
    Информация о звуке 3: TrueHD, 6 каналов, 2892 Кбит/сек | Английский
    Субтитры: Английские (Full, SDH)
    Навигация по главам: Есть

    MediaInfo:
    Общее
    Уникальный идентификатор : 201467434059412277333951499288809532295 (0x97913766797F5BC9A4EEC0C18DBB6B87)
    Полное имя : The Atticus Institute. (2015) BDRemux 1080p.mkv
    Формат : Matroska
    Версия формата : Version 2
    Размер файла : 15, 4 Гбайт
    Продолжительность : 1 ч. 22 м.
    Режим общего битрейта : Переменный
    Общий поток : 26, 7 Мбит/сек
    Название фильма : The Atticus Institute. 2015
    Дата кодирования : UTC 2015-05-20 19: 59: 50
    Программа кодирования : mkvmerge v5.8.0 (;No Sleep/Pillow;) built on Sep 2 2012 15: 37: 04
    Библиотека кодирования : libebml v1.2.3 + libmatroska v1.3.0

    Видео
    Идентификатор : 1
    Формат : AVC
    Формат/Информация : Advanced Video Codec
    Профиль формата : High@L4.1
    Параметр CABAC формата : Да
    Параметр ReFrames формата : 2 кадра
    Идентификатор кодека : V_MPEG4/ISO/AVC
    Продолжительность : 1 ч. 22 м.
    Вид битрейта : Переменный
    Ширина : 1920 пикселей
    Высота : 1080 пикселей
    Соотношение сторон : 16: 9
    Режим частоты кадров : Постоянный
    Частота кадров : 23, 976 кадра/сек
    Цветовое пространство : YUV
    Субдискретизация насыщенности : 4: 2: 0
    Битовая глубина : 8 бит
    Тип развёртки : Прогрессивная
    Заголовок : RARBG
    Язык : English
    Default : Да
    Forced : Нет

    Аудио #1
    Идентификатор : 2
    Формат : AC-3
    Формат/Информация : Audio Coding 3
    Расширение режима : CM (complete main)
    Параметр Endianness формата : Big
    Идентификатор кодека : A_AC3
    Продолжительность : 1 ч. 22 м.
    Вид битрейта : Постоянный
    Битрейт : 384 Кбит/сек
    Каналы : 6 каналов
    Расположение каналов : Front: L C R, Side: L R, LFE
    Частота : 48, 0 КГц
    Битовая глубина : 16 бит
    Метод сжатия : С потерями
    Размер потока : 227 Мбайт (1%)
    Заголовок : DUB | iTunes
    Язык : Russian
    Default : Да
    Forced : Нет

    Аудио #2
    Идентификатор : 3
    Формат : AC-3
    Формат/Информация : Audio Coding 3
    Расширение режима : CM (complete main)
    Параметр Endianness формата : Big
    Идентификатор кодека : A_AC3
    Продолжительность : 1 ч. 22 м.
    Вид битрейта : Постоянный
    Битрейт : 640 Кбит/сек
    Каналы : 6 каналов
    Расположение каналов : Front: L C R, Side: L R, LFE
    Частота : 48, 0 КГц
    Битовая глубина : 16 бит
    Метод сжатия : С потерями
    Размер потока : 379 Мбайт (2%)
    Заголовок : Original
    Язык : English
    Default : Нет
    Forced : Нет

    Аудио #3
    Идентификатор : 4
    Формат : TrueHD
    Идентификатор кодека : A_TRUEHD
    Продолжительность : 1 ч. 22 м.
    Вид битрейта : Переменный
    Максимальный битрейт : 2892 Кбит/сек
    Каналы : 6 каналов
    Расположение каналов : Front: L C R, Side: L R, LFE
    Частота : 48, 0 КГц
    Битовая глубина : 24 бит
    Метод сжатия : Без потерь
    Заголовок : Original | TrueHD
    Язык : English
    Default : Нет
    Forced : Нет

    Текст #1
    Идентификатор : 5
    Формат : UTF-8
    Идентификатор кодека : S_TEXT/UTF8
    Идентификатор кодека/Информация : UTF-8 Plain Text
    Заголовок : Full
    Язык : English
    Default : Нет
    Forced : Нет

    Текст #2
    Идентификатор : 6
    Формат : UTF-8
    Идентификатор кодека : S_TEXT/UTF8
    Идентификатор кодека/Информация : UTF-8 Plain Text
    Заголовок : SDH
    Язык : English
    Default : Нет
    Forced : Нет

    Меню
    00: 00: 00.000 : en: Chapter 01
    00: 03: 02.098 : en: Chapter 02
    00: 10: 45.603 : en: Chapter 03
    00: 19: 56.653 : en: Chapter 04
    00: 26: 01.685 : en: Chapter 05
    00: 34: 06.753 : en: Chapter 06
    00: 39: 49.095 : en: Chapter 07
    00: 49: 38.225 : en: Chapter 08
    00: 55: 49.637 : en: Chapter 09
    01: 02: 28.161 : en: Chapter 10
    01: 09: 00.094 : en: Chapter 11
    01: 19: 37.564 : en: Chapter 12



    Релиз подготовил:

    Онлайн видео Институт Аттикус


    Размер скачиваемого торрента: 15.43 GB (16573041477 Bytes)

    Институт Аттикус/The Atticus Institute (2015) BDRemux 1080p | iTunes
    загрузка...
    Рейтинг →
     (голосов: 1, оценка 3/5, голосовать можно 1 раз )

    Другие торренты по теме:

  • Институт Аттикус / The Atticus Institute (2015) BDRip 1080p | iTunes
  • Институт Аттикус / The Atticus Institute (2015) НDRip | iTunes
  • Институт Аттикус / The Atticus Institute (2015) BDRip 720p | iTunes
  • Институт Аттикус / The Atticus Institute (2015) BDRip 720p от KinoGadget and KinoXa | iPad
  • Институт Аттикус / The Atticus Institute (2015) HDRip-AVC | iTunes
  • Институт Аттикус / The Atticus Institute (2014) DVDRip | Лицензия
  • Институт Аттикус / The Atticus Institute (2015) DVD9 | Лицензия
  • Институт Аттикус / The Atticus Institute (2015) DVDRip от Fox 2015 | КПК | Лицензия


    • Комментарии (0):

      Информация

      Информация

        Посетители, находящиеся в группе Гости, не могут оставлять комментарии в данной новости.

        ↓ Меню



        ↓ Опрос

        А Вы добавили сайт в закладки?
        Да
        Не


        Top 10 за месяц (Фильмы)