.
Авторизация | Регистрация
Хочешь лучшие торренты? Добавь свой email!
Добавить
» » Kingsman: Секретная служба / Kingsman: The Secret Service (2014) BDRip 720p | iTunes скачать торрент бесплатно




    Kingsman: Секретная служба / Kingsman: The Secret Service (2014) BDRip 720p | iTunes скачать торрент бесплатно

    Опубликовал: Админ | Дата: 21-05-2015, 00:02 | Просмотров: 148


    Детально о кино
    Русское название: Kingsman: Секретная служба
    Русское название в мировом прокате: Kingsman: The Secret Service
    Создали в: 2015
    Категория жанра: боевик, комедия, криминал, приключения
    Главный режиссер: Мэттью Вон

    Актеры
    Тэрон Эджертон, Колин Фёрт, Сэмюэл Л. Джексон, Марк Стронг, Софи Куксон, Майкл Кейн, София Бутелла, Саманта Янус, Джофф Белл, Марк Хэмилл

    Сюжет фильма

    Эггси — молодой парень, который прошел службу в морской пехоте и имеет очень высокий уровень интеллекта. Он мог бы добиться многого, но выбрал другой путь и стал мелким преступником. Однажды он знакомится с Гарри Хартом, которому его отец когда-то спас жизнь. Этот человек решил сделать все возможное, чтобы сделать жизнь Эггси лучше и открыть для него новые возможности. Гарри рассказал ему, что является агентом секретной независимой организации, которая стоит на защите всего мира. Он предложил парню пройти обучение и стать новым членом их команды. Эггси принял предложение Харта, но сможет ли он справиться со всеми испытаниями и оправдать его надежды?..

    Снималось в: Великобритания
    Киностудия: Twentieth Century Fox Film Corporation, Marv Films, TSG Entertainment
    Время просмотра: 02: 08: 38
    Перевод текста: Дублированное iTunes
    Файл
    Кодек для видео: MPEG-4 AVC
    Качество фильма: BDRip 720p
    Информация о видео: 1280x536, 4623 Кбит/с
    Информация о звуке1: Русский - AC3, 6 ch, 384 Кбит/с
    Информация о звуке2: Английский - DTS, 6 ch, 1509 Кбит/с
    Субтитры: Английские
    MI
    General
    Unique ID : 174013868609079127819762488172849460126 (0x82E9DA1E976C2598870B55B99D6CF39E)
    Complete name : D: ФильмыKingsman.The.Secret.Service.2014.BDRip.720p.mkv
    Format : Matroska
    Format version : Version 2
    File size : 5.97 GiB
    Duration : 2h 8mn
    Overall bit rate : 6 648 Kbps
    Encoded date : UTC 2015-05-20 15: 49: 01
    Writing application : mkvmerge v3.3.0 (;Language;) built on Mar 24 2010 14: 59: 24
    Writing library : libebml v0.8.0 + libmatroska v0.9.0
    DURATION : 02: 00: 05.605000000
    NUMBER_OF_FRAMES : 1700
    NUMBER_OF_BYTES : 55806
    _STATISTICS_WRITING_APP : mkvmerge v7.8.0 (;River Man;) 64bit built on Mar 27 2015 16: 31: 37
    _STATISTICS_WRITING_DATE_UT : 2015-05-20 14: 56: 33
    _STATISTICS_TAGS : BPS DURATION NUMBER_OF_FRAMES NUMBER_OF_BYTES
    Video
    ID : 1
    Format : AVC
    Format/Info : Advanced Video Codec
    Format profile : High@L4.1
    Format settings, CABAC : Yes
    Format settings, ReFrames : 12 frames
    Codec ID : V_MPEG4/ISO/AVC
    Duration : 2h 8mn
    Bit rate : 4 623 Kbps
    Width : 1 280 pixels
    Height : 536 pixels
    Display aspect ratio : 2.40: 1
    Frame rate mode : Constant
    Frame rate : 23.976 fps
    Color space : YUV
    Chroma subsampling : 4: 2: 0
    Bit depth : 8 bits
    Scan type : Progressive
    Bits/(Pixel*Frame) : 0.281
    Stream size : 4.15 GiB (70%)
    Writing library : x264 core 142 r2431+42 c69a006 tMod 8-bit@all X86_64
    Encoding settings : cabac=1/ref=12/deblock=1: -3: -3/analyse=0x3: 0x133/me=umh/subme=10/psy=1/fade_compensate=0.00/psy_rd=1.00: 0.00/mixed_ref=1/me_range=24/chroma_me=1/trellis=2/8x8dct=1/cqm=0/deadzone=21, 11/fast_pskip=0/chroma_qp_offset=-2/threads=24/lookahead_threads=4/sliced_threads=0/nr=0/decimate=0/interlaced=0/bluray_compat=0/constrained_intra=0/fgo=0/bframes=11/b_pyramid=2/b_adapt=2/b_bias=0/direct=3/weightb=1/open_gop=0/weightp=2/keyint=250/keyint_min=23/scenecut=40/intra_refresh=0/rc=crf/mbtree=0/crf=15.5000/qcomp=0.65/qpmin=0: 0: 0/qpmax=69: 69: 69/qpstep=4/ip_ratio=1.30/pb_ratio=1.20/aq=3: 0.75/aq-sensitivity=10.00/aq-factor=1.00: 1.00: 1.00/aq2=0/aq3=0
    Language : English
    Default : No
    Forced : No
    DURATION : 02: 08: 37.627000000
    NUMBER_OF_FRAMES : 185038
    NUMBER_OF_BYTES : 4584961962
    _STATISTICS_WRITING_APP : mkvmerge v7.8.0 (;River Man;) 64bit built on Mar 27 2015 16: 31: 37
    _STATISTICS_WRITING_DATE_UT : 2015-05-20 14: 56: 33
    _STATISTICS_TAGS : BPS DURATION NUMBER_OF_FRAMES NUMBER_OF_BYTES
    Audio #1
    ID : 2
    Format : AC-3
    Format/Info : Audio Coding 3
    Mode extension : CM (complete main)
    Format settings, Endianness : Big
    Codec ID : A_AC3
    Duration : 2h 8mn
    Bit rate mode : Constant
    Bit rate : 384 Kbps
    Channel(s) : 6 channels
    Channel positions : Front: L C R, Side: L R, LFE
    Sampling rate : 48.0 KHz
    Compression mode : Lossy
    Stream size : 353 MiB (6%)
    Title : Русский
    Language : Russian
    Default : Yes
    Forced : Yes
    Audio #2
    ID : 3
    Format : DTS
    Format/Info : Digital Theater Systems
    Format profile : ES
    Mode : 16
    Format settings, Endianness : Big
    Codec ID : A_DTS
    Duration : 2h 8mn
    Bit rate mode : Constant
    Bit rate : 1 509 Kbps
    Channel(s) : 6 channels
    Channel positions : Front: L C R, Side: L R, LFE
    Sampling rate : 48.0 KHz
    Bit depth : 24 bits
    Compression mode : Lossy
    Delay relative to video : 11ms
    Stream size : 1.36 GiB (23%)
    Title : Английский
    Language : English
    Default : No
    Forced : No
    Text
    ID : 4
    Format : UTF-8
    Codec ID : S_TEXT/UTF8
    Codec ID/Info : UTF-8 Plain Text
    Language : English
    Default : No
    Forced : No
    Menu
    00: 00: 00.000 : en: 00: 00: 00.000
    00: 02: 55.467 : en: 00: 02: 55.467
    00: 04: 50.665 : en: 00: 04: 50.665
    00: 08: 34.180 : en: 00: 08: 34.180
    00: 11: 49.876 : en: 00: 11: 49.876
    00: 13: 04.575 : en: 00: 13: 04.575
    00: 15: 57.999 : en: 00: 15: 57.999
    00: 18: 25.980 : en: 00: 18: 25.980
    00: 23: 48.052 : en: 00: 23: 48.052
    00: 25: 37.327 : en: 00: 25: 37.327
    00: 29: 53.750 : en: 00: 29: 53.750
    00: 32: 22.315 : en: 00: 32: 22.315
    00: 33: 44.940 : en: 00: 33: 44.940
    00: 36: 58.508 : en: 00: 36: 58.508
    00: 38: 46.658 : en: 00: 38: 46.658
    00: 42: 43.060 : en: 00: 42: 43.060
    00: 45: 00.906 : en: 00: 45: 00.906
    00: 47: 39.315 : en: 00: 47: 39.315
    00: 53: 44.596 : en: 00: 53: 44.596
    00: 57: 25.233 : en: 00: 57: 25.233
    01: 03: 26.553 : en: 01: 03: 26.553
    01: 05: 18.915 : en: 01: 05: 18.915
    01: 10: 24.971 : en: 01: 10: 24.971
    01: 13: 07.258 : en: 01: 13: 07.258
    01: 14: 58.994 : en: 01: 14: 58.994
    01: 16: 55.236 : en: 01: 16: 55.236
    01: 23: 00.851 : en: 01: 23: 00.851
    01: 25: 54.441 : en: 01: 25: 54.441
    01: 31: 18.348 : en: 01: 31: 18.348
    01: 34: 35.837 : en: 01: 34: 35.837
    01: 36: 24.987 : en: 01: 36: 24.987
    01: 39: 57.033 : en: 01: 39: 57.033
    01: 44: 04.905 : en: 01: 44: 04.905
    01: 50: 28.121 : en: 01: 50: 28.121
    01: 58: 14.712 : en: 01: 58: 14.712
    01: 59: 31.956 : en: 01: 59: 31.956

    Скриншоты


    Онлайн видео Kingsman: Секретная служба


    Размер скачиваемого торрента: 5.97 GB (6413790424 Bytes)

    Kingsman: Секретная служба/Kingsman: The Secret Service (2014) BDRip 720p | iTunes
    загрузка...
    Рейтинг →
     (голосов: 1, оценка 3/5, голосовать можно 1 раз )

    Другие торренты по теме:

  • Kingsman: Тайная служба / Kingsman: Секретная служба (2015) TS
  • Kingsman: Секретная служба / Kingsman: The Secret Service (2014) TS
  • Kingsman: Секретная служба / Kingsman: The Secret Service (2014) HDRip | iTunes
  • Kingsman: Секретная служба / Kingsman: The Secret Service (2014) HDRip | iTunes
  • Kingsman: Секретная служба / Kingsman: The Secret Service (2014) BDRip 1080p | D | iTunes
  • Kingsman: Секретная служба / Kingsman: The Secret Service (2014) HDRip-AVC от ExKinoRay | iTunes
  • Kingsman: Секретная служба / Kingsman: The Secret Service (2014) HDRip-AVC | iTunes
  • Kingsman: Секретная служба / Kingsman: The Secret Service (2014) HDRip от Scarabey | iTunes


    • Комментарии (0):

      Информация

      Информация

        Посетители, находящиеся в группе Гости, не могут оставлять комментарии в данной новости.

        ↓ Меню



        ↓ Опрос

        А Вы добавили сайт в закладки?
        Да
        Не


        Top 10 за месяц (Фильмы)