.
Авторизация | Регистрация
Хочешь лучшие торренты? Добавь свой email!
Добавить
» » Институт Аттикус / The Atticus Institute (2015) BDRip 720p от KinoGadget and KinoXa | iPad скачать торрент бесплатно




    Институт Аттикус / The Atticus Institute (2015) BDRip 720p от KinoGadget and KinoXa | iPad скачать торрент бесплатно

    Опубликовал: Админ | Дата: 20-05-2015, 00:01 | Просмотров: 123


    Создали в: 2015
    Снималось в: США
    Категория жанра: ужасы, триллер, драма
    Время просмотра: 01: 22: 49
    Перевод текста: Дублированный
    Главный режиссер: Крис Спарлинг

    Актеры
    Джулиан Акоста, Энн Бетанкур, Карлос Е. Кампос, Джейк Карпентер, Хит Сентаццо, Брайан Ченоуэт, Ханна Коули, Аарон Крэвен, Динарте де Фрейтас, Лэндалл Гулсби
    Описание: Ненри Уэст основал институт Аттикус, который занимается исследованием людей с паранормальными способностями — телекинез, телепатия и т. п. За всю его деятельность Уэст видел много разных случаев, но с появлением женщины Джудит Уинстед, всё что он видел ранее стало малозначительным. Сотрудники института были поражены ее сверх способностями, что привлекло внимание военных США, и дальнейшие исследования проводились под контролем армии. Все дальнейшие исследования Джудит дали понять докторам, что ее способности это происки дьявола и потусторонних сил, которые находились внутри женщины. Военные решают использовать Джудит в качестве оружия. Но вскоре они понимают, что не со всякой властью они могут справиться.

    Информация о видео кодек: MPEG-4 AVC
    Качество фильма: BDRip 720p
    Параметры Видео: 1280x688, 23.976 fps; ~1 835 kbps avg
    Параметры Звука: 44.1 KHz, AAC, ~150.00 kbps avg, 2ch
    Тип видео: mp4
    Автор рипа:
    Релиз-группа:

    Meta Tags


    MI
    General
    Complete name : E: Institut.Attikus.2015.D.BDRip.720p_KinoGadget.and.KinoXa.mp4
    Format : MPEG-4
    Format profile : Base Media
    Codec ID : isom
    File size : 1.15 GiB
    Duration : 1h 22mn
    Overall bit rate mode : Variable
    Overall bit rate : 1 992 Kbps
    Movie name : Институт Аттикус
    Performer : Крис Спарлинг
    Genre : Horror
    ContentType : Short Film
    Recorded date : 2015
    Encoded date : UTC 2015-05-19 15: 07: 40
    Tagged date : UTC 2015-05-19 15: 21: 17
    Cover : Yes
    LongDeion : Ненри Уэст основал институт Аттикус, который занимается исследованием людей с паранормальными способностями — телекинез, телепатия и т. п. За всю его деятельность Уэст видел много разных случаев, но с появлением женщины Джудит Уинстед, всё что он видел ранее стало малозначительным. Сотрудники института были поражены ее сверх способностями, что привлекло внимание военных США, и дальнейшие исследования проводились под контролем армии. Все дальнейшие исследования Джудит дали понять докторам, что ее способности это происки дьявола и потусторонних сил, которые находились внутри женщины.
    HDVideo : Yes
    Video
    ID : 1
    Format : AVC
    Format/Info : Advanced Video Codec
    Format profile : High@L4.1
    Format settings, CABAC : Yes
    Format settings, ReFrames : 9 frames
    Codec ID : avc1
    Codec ID/Info : Advanced Video Coding
    Duration : 1h 22mn
    Bit rate : 1 835 Kbps
    Maximum bit rate : 18.1 Mbps
    Width : 1 280 pixels
    Height : 688 pixels
    Display aspect ratio : 1.85: 1
    Frame rate mode : Constant
    Frame rate : 23.976 fps
    Color space : YUV
    Chroma subsampling : 4: 2: 0
    Bit depth : 8 bits
    Scan type : Progressive
    Bits/(Pixel*Frame) : 0.087
    Stream size : 1.06 GiB (92%)
    Writing library : x264 core 146 r2538 121396c
    Encoding settings : cabac=1/ref=9/deblock=1: -1: -1/analyse=0x3: 0x133/me=umh/subme=9/psy=1/psy_rd=1.00: 0.20/mixed_ref=1/me_range=24/chroma_me=1/trellis=2/8x8dct=1/cqm=0/deadzone=21, 11/fast_pskip=1/chroma_qp_offset=-3/threads=3/lookahead_threads=1/sliced_threads=0/nr=0/decimate=1/interlaced=0/bluray_compat=0/constrained_intra=0/bframes=4/b_pyramid=2/b_adapt=2/b_bias=0/direct=3/weightb=1/open_gop=0/weightp=2/keyint=240/keyint_min=23/scenecut=40/intra_refresh=0/rc_lookahead=60/rc=crf/mbtree=1/crf=21.0/qcomp=0.60/qpmin=0/qpmax=69/qpstep=4/ip_ratio=1.40/aq=1: 1.00
    Encoded date : UTC 2015-05-19 06: 36: 19
    Tagged date : UTC 2015-05-19 15: 08: 17
    Audio
    ID : 2
    Format : AAC
    Format/Info : Advanced Audio Codec
    Format profile : LC
    Codec ID : 40
    Duration : 1h 22mn
    Bit rate mode : Variable
    Bit rate : 150 Kbps
    Maximum bit rate : 216 Kbps
    Channel count : 2 channels
    Channel positions : Front: L R
    Sampling rate : 44.1 KHz
    Compression mode : Lossy
    Stream size : 88.6 MiB (8%)
    Language : Russian
    Encoded date : UTC 2015-05-19 15: 08: 08
    Tagged date : UTC 2015-05-19 15: 08: 17

    Скриншоты


    Залил: KinoGadget

    Онлайн видео Институт Аттикус


    Размер скачиваемого торрента: 1.15 GB (1237461244 Bytes)

    Институт Аттикус/The Atticus Institute (2015) BDRip 720p от KinoGadget and KinoXa | iPad
    загрузка...
    Рейтинг →
     (голосов: 1, оценка 5/5, голосовать можно 1 раз )

    Другие торренты по теме:

  • Институт Аттикус / The Atticus Institute (2015) BDRip 1080p | iTunes
  • Институт Аттикус / The Atticus Institute (2015) НDRip | iTunes
  • Институт Аттикус / The Atticus Institute (2015) BDRip 720p | iTunes
  • Институт Аттикус / The Atticus Institute (2015) BDRemux 1080p | iTunes
  • Институт Аттикус / The Atticus Institute (2015) HDRip-AVC | iTunes
  • Институт Аттикус / The Atticus Institute (2014) DVDRip | Лицензия
  • Институт Аттикус / The Atticus Institute (2015) DVD9 | Лицензия
  • Институт Аттикус / The Atticus Institute (2015) DVDRip от Fox 2015 | КПК | Лицензия


    • Комментарии (0):

      Информация

      Информация

        Посетители, находящиеся в группе Гости, не могут оставлять комментарии в данной новости.

        ↓ Меню



        ↓ Опрос

        А Вы добавили сайт в закладки?
        Да
        Не


        Top 10 за месяц (Фильмы)