.
Авторизация | Регистрация
Хочешь лучшие торренты? Добавь свой email!
Добавить
» » Распутный квартет / The Lickerish Quartet (1970) Blu-Ray Remux 1080p | A скачать торрент бесплатно




    Распутный квартет / The Lickerish Quartet (1970) Blu-Ray Remux 1080p | A скачать торрент бесплатно

    Опубликовал: Админ | Дата: 19-05-2015, 12:41 | Просмотров: 120


    Детально о кино
    Русское название: Распутный квартет
    Русское название в мировом прокате: The Lickerish Quartet
    Создали в: 1970
    Категория жанра: Эротика, артхаус, авторское кино, драма
    Главный режиссер: Рэдли Метцгер

    Актеры
    Сильвана Вентурелли, Фрэнк Вулф, Эрика Ремберг, Паоло Турко, Карл-Отто Альберти

    Сюжет фильма
    Богатая супружеская пара, уставшая от жизни, смотрит домашнее порно в своем замке. Через пару часов они знакомятся с девушкой, которая как две капли воды похожа на одну из разнузданных проституток на экране. Кто она? Начинается игра в прятки, которую можно назвать эротическим дуэтом для четверых. Эротика переплетается с детективом, прошлое с настоящим. а экранная жизнь с реальностью.

    Снималось в: США, Италия, Германия (ФРГ)
    Киностудия: Carstein, Cinemar, Peter Carsten Produktion
    Время просмотра: 01: 27: 46
    Перевод текста: Авторский одноголосый (Антон Алексеев)
    Файл
    Кодек для видео: MPEG-4 AVC
    Качество фильма: Blu-Ray Remux (1080p)
    Информация о видео: 18.6 Мбит/с, 1920x1080
    Информация о звуке: Русский, английский (AC3, 2 ch, 192 Кбит/с)
    Скриншоты



    Инфо-файл
    Общее
    Уникальный идентификатор : 249082434736464375018847787420584265629 (0xBB63882F0DC423E2B2FAAC590260479D)
    Полное имя : E: The.Lickerish.Quartet.1970.1080p.Bluray.AVC.Remux.mkv
    Формат : Matroska
    Версия формата : Version 2
    Размер файла : 11, 9 Гбайт
    Продолжительность : 1 ч. 27 м.
    Режим общего битрейта : Переменный
    Общий поток : 19, 4 Мбит/сек
    Название фильма : The.Lickerish.Quartet.1970.1080p.Bluray.AVC.Remux
    Дата кодирования : UTC 2011-08-12 00: 29: 33
    Программа кодирования : mkvmerge v4.9.1 (;Ich will;) сборка от Jul 11 2011 23: 53: 15
    Библиотека кодирования : libebml v1.2.1 + libmatroska v1.1.1
    Видео
    Идентификатор : 1
    Формат : AVC
    Формат/Информация : Advanced Video Codec
    Профиль формата : High@L4.1
    Параметр CABAC формата : Да
    Параметр ReFrames формата : 4 кадра
    Идентификатор кодека : V_MPEG4/ISO/AVC
    Продолжительность : 1 ч. 27 м.
    Вид битрейта : Переменный
    Битрейт : 18, 6 Мбит/сек
    Максимальный битрейт : 35, 0 Мбит/сек
    Ширина : 1920 пикселей
    Высота : 1080 пикселей
    Соотношение сторон : 16: 9
    Режим частоты кадров : Постоянный
    Частота кадров : 23, 976 кадра/сек
    Стандарт вещания : NTSC
    Цветовое пространство : YUV
    Субдискретизация насыщенности : 4: 2: 0
    Битовая глубина : 8 бит
    Тип развёртки : Прогрессивная
    Бит/(Пиксели*Кадры) : 0.374
    Размер потока : 11, 4 Гбайт (96%)
    Заголовок : uralmix
    Default : Да
    Forced : Нет
    Основные цвета : BT.709
    Характеристики трансфера : BT.709
    Коэффициенты матрицы : BT.709
    colour_range : Limited
    Аудио #1
    Идентификатор : 2
    Формат : AC-3
    Формат/Информация : Audio Coding 3
    Расширение режима : CM (complete main)
    Параметр Endianness формата : Big
    Идентификатор кодека : A_AC3
    Продолжительность : 1 ч. 27 м.
    Вид битрейта : Постоянный
    Битрейт : 192 Кбит/сек
    Каналы : 2 канала
    Расположение каналов : Front: L R
    Частота : 48, 0 КГц
    Битовая глубина : 16 бит
    Метод сжатия : С потерями
    Размер потока : 121 Мбайт (1%)
    Заголовок : авторский - Антон Алексеев
    Язык : Russian
    Default : Да
    Forced : Нет
    Аудио #2
    Идентификатор : 3
    Формат : AC-3
    Формат/Информация : Audio Coding 3
    Расширение режима : CM (complete main)
    Параметр Endianness формата : Big
    Идентификатор кодека : A_AC3
    Продолжительность : 1 ч. 27 м.
    Вид битрейта : Постоянный
    Битрейт : 192 Кбит/сек
    Каналы : 2 канала
    Расположение каналов : Front: L R
    Частота : 48, 0 КГц
    Битовая глубина : 16 бит
    Метод сжатия : С потерями
    Размер потока : 121 Мбайт (1%)
    Язык : English
    Default : Нет
    Forced : Нет
    Меню
    00: 00: 00.000 : en: 00: 00: 00.000
    00: 08: 38.309 : en: 00: 08: 38.309
    00: 11: 02.954 : en: 00: 11: 02.954
    00: 19: 33.672 : en: 00: 19: 33.672
    00: 26: 54.780 : en: 00: 26: 54.780
    00: 39: 52.765 : en: 00: 39: 52.765
    00: 53: 39.842 : en: 00: 53: 39.842
    01: 05: 36.391 : en: 01: 05: 36.391
    01: 18: 30.539 : en: 01: 18: 30.539
    01: 24: 41.159 : en: 01: 24: 41.159

    Релиз подготовил:
    Залил: El Banditо

    Онлайн видео Распутный квартет


    Размер скачиваемого торрента: 11.87 GB (12749606816 Bytes)

    Распутный квартет/The Lickerish Quartet (1970) Blu-Ray Remux 1080p | A
    загрузка...
    Рейтинг →
     (голосов: 1, оценка 3/5, голосовать можно 1 раз )

    Другие торренты по теме:

  • Распутный квартет / The Lickerish Quartet (1970) BDRip 1080p | A


    • Комментарии (0):

      Информация

      Информация

        Посетители, находящиеся в группе Гости, не могут оставлять комментарии в данной новости.

        ↓ Меню



        ↓ Опрос

        А Вы добавили сайт в закладки?
        Да
        Не


        Top 10 за месяц (Фильмы)