.
Авторизация | Регистрация
Хочешь лучшие торренты? Добавь свой email!
Добавить
» » Пятьдесят оттенков серого / Fifty Shades of Grey (2015) BDRip 720p | Unrated | KinoGadget and KinoXa | iPad скачать торрент бесплатно




    Пятьдесят оттенков серого / Fifty Shades of Grey (2015) BDRip 720p | Unrated | KinoGadget and KinoXa | iPad скачать торрент бесплатно

    Опубликовал: Админ | Дата: 27-04-2015, 05:05 | Просмотров: 135


    Создали в: 2015
    Снималось в: США
    Категория жанра: мелодрама
    Время просмотра: 02: 08: 30
    Перевод текста: Дублированный
    Главный режиссер: Сэм Тейлор-Джонсон

    Актеры
    Дакота Джонсон, Джейми Дорнан, Дженнифер Или, Макс Мартини, Люк Граймс, Элоиза Мамфорд, Марша Гей Харден, Рэйчел Скарстен, Рита Ора, Каллум Кит Ренни, Дилан Нил, Эмили Фонда, Энн Мари ДеЛуис, Эндрю Эйрли, Виктор Расук
    Описание: Анастейша Стил — скромная студентка, живущая вместе с близкой подругой-сокурсницей Кейт. За неделю до выпускного в университете, Анастейша, по просьбе заболевшей Кейт заменить её, берёт интервью у молодого красавца-миллиардера Кристиана Грея. Интервью складывается не очень удачно, и Анастейша не думает, что они когда-либо встретятся вновь. Неожиданно Грей появляется в хозяйственном магазине, где девушка работает продавцом. Их знакомство продолжается, и Анастейша постепенно узнаёт о тайных сексуальных увлечениях богача…

    Информация о видео кодек: MPEG-4 AVC
    Качество фильма: BDRip 720p
    Параметры Видео: 1280x528, 23.976 fps; ~1 742 kbps avg
    Параметры Звука: 44.1 KHz, AAC, ~150.00 kbps avg, 2ch
    Тип видео: mp4
    Автор рипа:
    Релиз-группа:

    Meta Tags


    MI
    General
    Complete name : E: 50_ottenkov_serogo.2015.Unrated.D.BDRip.720p_KinoGadget.and.KinoXa.mp4
    Format : MPEG-4
    Format profile : Base Media
    Codec ID : isom
    File size : 1.70 GiB
    Duration : 2h 8mn
    Overall bit rate mode : Variable
    Overall bit rate : 1 899 Kbps
    Movie name : Пятьдесят оттенков серого
    Performer : Сэм Тейлор-Джонсон
    Genre : Drama, Romance
    ContentType : Short Film
    Recorded date : 2015
    Encoded date : UTC 2015-04-26 07: 32: 46
    Tagged date : UTC 2015-04-26 07: 45: 42
    Cover : Yes
    ContentRating : mpaa|R|400|
    LongDeion : Анастейша Стил — скромная студентка, живущая вместе с близкой подругой-сокурсницей Кейт. За неделю до выпускного в университете, Анастейша, по просьбе заболевшей Кейт заменить её, берёт интервью у молодого красавца-миллиардера Кристиана Грея. Интервью складывается не очень удачно, и Анастейша не думает, что они когда-либо встретятся вновь. Неожиданно Грей появляется в хозяйственном магазине, где девушка работает продавцом. Их знакомство продолжается, и Анастейша постепенно узнаёт о тайных сексуальных увлечениях богача…
    HDVideo : Yes
    Video
    ID : 1
    Format : AVC
    Format/Info : Advanced Video Codec
    Format profile : High@L4.1
    Format settings, CABAC : Yes
    Format settings, ReFrames : 11 frames
    Codec ID : avc1
    Codec ID/Info : Advanced Video Coding
    Duration : 2h 8mn
    Bit rate : 1 742 Kbps
    Maximum bit rate : 7 726 Kbps
    Width : 1 280 pixels
    Height : 528 pixels
    Display aspect ratio : 2.40: 1
    Frame rate mode : Constant
    Frame rate : 23.976 fps
    Color space : YUV
    Chroma subsampling : 4: 2: 0
    Bit depth : 8 bits
    Scan type : Progressive
    Bits/(Pixel*Frame) : 0.108
    Stream size : 1.56 GiB (92%)
    Writing library : x264 core 146 r2538 121396c
    Encoding settings : cabac=1/ref=11/deblock=1: -1: -1/analyse=0x3: 0x133/me=umh/subme=9/psy=1/psy_rd=1.00: 0.20/mixed_ref=1/me_range=24/chroma_me=1/trellis=2/8x8dct=1/cqm=0/deadzone=21, 11/fast_pskip=1/chroma_qp_offset=-3/threads=3/lookahead_threads=1/sliced_threads=0/nr=0/decimate=1/interlaced=0/bluray_compat=0/constrained_intra=0/bframes=4/b_pyramid=2/b_adapt=2/b_bias=0/direct=3/weightb=1/open_gop=0/weightp=2/keyint=240/keyint_min=23/scenecut=40/intra_refresh=0/rc_lookahead=60/rc=crf/mbtree=1/crf=21.0/qcomp=0.60/qpmin=0/qpmax=69/qpstep=4/ip_ratio=1.40/aq=1: 1.80
    Encoded date : UTC 2015-04-26 07: 27: 21
    Tagged date : UTC 2015-04-26 07: 35: 10
    Audio
    ID : 2
    Format : AAC
    Format/Info : Advanced Audio Codec
    Format profile : LC
    Codec ID : 40
    Duration : 2h 8mn
    Bit rate mode : Variable
    Bit rate : 150 Kbps
    Maximum bit rate : 196 Kbps
    Channel count : 2 channels
    Channel positions : Front: L R
    Sampling rate : 44.1 KHz
    Compression mode : Lossy
    Stream size : 137 MiB (8%)
    Language : Russian
    Encoded date : UTC 2015-04-26 07: 34: 53
    Tagged date : UTC 2015-04-26 07: 35: 10

    Скриншоты


    Залил: KinoGadget

    Онлайн видео Пятьдесят оттенков серого


    Размер скачиваемого торрента: 1.70 GB (1830403105 Bytes)

    Пятьдесят оттенков серого/Fifty Shades of Grey (2015) BDRip 720p | Unrated | KinoGadget and KinoXa | iPad
    загрузка...
    Рейтинг →
     (голосов: 1, оценка 5/5, голосовать можно 1 раз )

    Другие торренты по теме:

  • Эрика Леонард Джеймс - Пятьдесят оттенков серого (2013) MP3
  • Эрика Леонард Джеймс - На пятьдесят оттенков темнее (2013) MP3
  • Эрика Леонард Джеймс - Пятьдесят оттенков. Трилогия (2013) M4B
  • Пятьдесят оттенков серого / Fifty Shades of Grey (2015) HD 1080p | Трейлер
  • Пятьдесят оттенков подчинения
  • Пятьдесят оттенков серого (2015) HDRip
  • Эротика. Пятьдесят оттенков в 14 книгах (2012-2014) FB2, RTF
  • OST - Пятьдесят оттенков серого / Fifty Shades of Grey (2015) AAC


    • Комментарии (0):

      Информация

      Информация

        Посетители, находящиеся в группе Гости, не могут оставлять комментарии в данной новости.

        ↓ Меню



        ↓ Опрос

        А Вы добавили сайт в закладки?
        Да
        Не


        Top 10 за месяц (Фильмы)