.
Авторизация | Регистрация
Хочешь лучшие торренты? Добавь свой email!
Добавить
» » Битва за Севастополь (2015) DVDRip-AVC | Лицензия скачать торрент бесплатно




    Битва за Севастополь (2015) DVDRip-AVC | Лицензия скачать торрент бесплатно

    Опубликовал: Админ | Дата: 27-04-2015, 05:04 | Просмотров: 309


    Детально о кино
    Русское название в мировом прокате: Битва за Севастополь
    Создали в: 2015
    Категория жанра: Военный, ВОВ, драма, реальные события
    Снималось в: Россия, Украина, Новые люди
    Главный режиссер: Сергей Мокрицкий

    Актеры
    Юлия Пересильд, Евгений Цыганов, Олег Васильков, Никита Тарасов, Джоан Блэкэм, Полина Пахомова, Владимир Лилицкий, Анатолий Кот, Нателла Абелева-Таганова, Валерий Гришко

    Сюжет фильма
    Одна из немногих кинолент посвященных женщинам на войне. История известной женщины снайпера, принимавшей активное участие в обороне Севастополя. Уничтожив 309 фашистов, она покинула Севастополь, будучи серьезно раненой. После выздоровления оказалась в США с русской женской делегацией, ездила вместе с Элеонорой Рузвельт по Америке, убеждая открыть второй фронт.
    Файл
    Качество фильма: DVDRip (AVC)
    Информация о видео: MPEG-4 AVC, 2035 Кбит/с, 1024x424
    Информация о звуке: AC3, 6 ch, 448 Кбит/с
    Размер скачиваемого торрента: 2.05 ГБ
    Время просмотра: 01: 57: 54
    Язык: Русский
    MI

    x264 info: frame I: 1175 Avg QP: 13.94 size: 49528
    x264 info: frame P: 45963 Avg QP: 17.07 size: 19635
    x264 info: frame B: 129728 Avg QP: 18.96 size: 6463
    Общее
    Уникальный идентификатор : 170341434363060259405307540232023552467 (0x80269121BB8D8AFEA0EF8DBF6CFBB1D3)
    Полное имя : C: Sevastopol.2015.O.DVDRip.(AVC).by_bog3417.mkv
    Формат : Matroska
    Версия формата : Version 2
    Размер файла : 2, 05 Гбайт
    Продолжительность : 1 ч. 57 м.
    Общий поток : 2484 Кбит/сек
    Название фильма : by_bog3417
    Дата кодирования : UTC 2015-04-26 12: 12: 58
    Программа кодирования : mkvmerge v7.4.0 (;Circles;) 64bit built on Dec 12 2014 12: 19: 56
    Библиотека кодирования : libebml v1.3.0 + libmatroska v1.4.1
    DURATION : 01: 57: 54.400000000
    NUMBER_OF_FRAMES : 221075
    NUMBER_OF_BYTES : 396166400
    _STATISTICS_WRITING_APP : mkvmerge v7.4.0 (;Circles;) 64bit built on Dec 12 2014 12: 19: 56
    _STATISTICS_WRITING_DATE_UTC : 2015-04-26 12: 12: 58
    _STATISTICS_TAGS : BPS DURATION NUMBER_OF_FRAMES NUMBER_OF_BYTES
    Видео
    Идентификатор : 1
    Формат : AVC
    Формат/Информация : Advanced Video Codec
    Профиль формата : High@L4.1
    Параметр CABAC формата : Да
    Параметр ReFrames формата : 9 кадров
    Идентификатор кодека : V_MPEG4/ISO/AVC
    Продолжительность : 1 ч. 57 м.
    Битрейт : 2035 Кбит/сек
    Ширина : 1024 пикселя
    Высота : 424 пикселя
    Соотношение сторон : 2, 40: 1
    Режим частоты кадров : Постоянный
    Частота кадров : 25, 000 кадров/сек
    Цветовое пространство : YUV
    Субдискретизация насыщенности : 4: 2: 0
    Битовая глубина : 8 бит
    Тип развёртки : Прогрессивная
    Бит/(Пиксели*Кадры) : 0.187
    Размер потока : 1, 64 Гбайт (80%)
    Заголовок : by_bog3417
    Библиотека кодирования : x264 core 146 r2538 121396c
    Настройки программы : cabac=1/ref=9/deblock=1: -3: -3/analyse=0x3: 0x133/me=umh/subme=11/psy=1/psy_rd=1.00: 0.00/mixed_ref=1/me_range=48/chroma_me=1/trellis=2/8x8dct=1/cqm=0/deadzone=21, 11/fast_pskip=0/chroma_qp_offset=-2/threads=12/lookahead_threads=2/sliced_threads=0/nr=0/decimate=0/interlaced=0/bluray_compat=0/constrained_intra=0/bframes=9/b_pyramid=2/b_adapt=2/b_bias=0/direct=3/weightb=1/open_gop=0/weightp=2/keyint=250/keyint_min=25/scenecut=40/intra_refresh=0/rc=2pass/mbtree=0/bitrate=2035/ratetol=1.0/qcomp=0.60/qpmin=0/qpmax=69/qpstep=4/cplxblur=20.0/qblur=0.5/ip_ratio=1.40/pb_ratio=1.30/aq=1: 1.00
    Язык : English
    Default : Да
    Forced : Нет
    DURATION : 01: 57: 54.640000000
    NUMBER_OF_FRAMES : 176866
    NUMBER_OF_BYTES : 1799171354
    _STATISTICS_WRITING_APP : mkvmerge v7.4.0 (;Circles;) 64bit built on Dec 12 2014 12: 19: 56
    _STATISTICS_WRITING_DATE_UTC : 2015-04-26 12: 12: 58
    _STATISTICS_TAGS : BPS DURATION NUMBER_OF_FRAMES NUMBER_OF_BYTES
    Аудио
    Идентификатор : 2
    Формат : AC-3
    Формат/Информация : Audio Coding 3
    Расширение режима : CM (complete main)
    Параметр Endianness формата : Big
    Идентификатор кодека : A_AC3
    Продолжительность : 1 ч. 57 м.
    Вид битрейта : Постоянный
    Битрейт : 448 Кбит/сек
    Каналы : 6 каналов
    Расположение каналов : Front: L C R, Side: L R, LFE
    Частота : 48, 0 КГц
    Битовая глубина : 16 бит
    Метод сжатия : С потерями
    Размер потока : 378 Мбайт (18%)
    Язык : Russian
    Default : Да
    Forced : Нет
    Меню
    00: 00: 00.000 : en: 00: 00: 00.000
    00: 09: 43.920 : en: 00: 09: 43.920
    00: 21: 51.000 : en: 00: 21: 51.000
    00: 30: 13.880 : en: 00: 30: 13.880
    00: 42: 35.720 : en: 00: 42: 35.720
    00: 49: 30.080 : en: 00: 49: 30.080
    00: 58: 14.840 : en: 00: 58: 14.840
    01: 07: 38.920 : en: 01: 07: 38.920
    01: 18: 14.760 : en: 01: 18: 14.760
    01: 28: 07.080 : en: 01: 28: 07.080
    01: 39: 09.920 : en: 01: 39: 09.920
    01: 51: 50.160 : en: 01: 51: 50.160

    Скриншоты





    Онлайн видео Битва за Севастополь (2015) DVDRip-AVC


    Размер скачиваемого торрента: 2.05 GB (2196894456 Bytes)

    Битва за Севастополь (2015) DVDRip-AVC | Лицензия
    загрузка...
    Рейтинг →
     (голосов: 1, оценка 4/5, голосовать можно 1 раз )

    Другие торренты по теме:

  • Битва за Англию / Битва за Британию / Battle of Britain (1969) Blu-Ray 1080p | P2
  • Битва за огонь / Война за огонь / La guerre du feu (1981) BDRip 720p скачать через торрент бесплатно
  • Битва за огонь / Борьба за огонь / La guerre du feu / Quest for Fire (1981) BDRip-AVC от MediaClub скачать через торрент бесплатно
  • Охотники за привидениями. Битва за Москву (2017) WEBRip от Files-х
  • Битва за планету Терра / Battle for Terra (2007) BDRip 1080p
  • Birth of America: Битва за независимость (2006) PC | Лицензия
  • Инопланетное вторжение: Битва за Лос-Анджелес / Battle: Los Angeles (2011) HDRip-AVC
  • Ратные подвиги. Битва за Измаил (2010) DVDRip-AVC от Тorrent-Хzona


    • Комментарии (0):

      Информация

      Информация

        Посетители, находящиеся в группе Гости, не могут оставлять комментарии в данной новости.

        ↓ Меню



        ↓ Опрос

        А Вы добавили сайт в закладки?
        Да
        Не


        Top 10 за месяц (Фильмы)