.
Авторизация | Регистрация
Хочешь лучшие торренты? Добавь свой email!
Добавить
» » Золотая тропа (1945) DVDRip от New-Team скачать торрент бесплатно




    Золотая тропа (1945) DVDRip от New-Team скачать торрент бесплатно

    Опубликовал: Админ | Дата: 23-04-2015, 03:05 | Просмотров: 136


    Снималось в: СССР
    Создали в: Тбилисская киностудия
    Категория жанра: драма, приключения
    Создали в: 1945
    Время просмотра: 01: 16: 53
    Перевод текста: Не требуется
    Субтитры подготовлены: нет
    Оригинальная аудиодорожка: русский
    Главный режиссер: Константин Пипинашвили

    Актеры

    Владимир Чобур, Петр Соболевский, Андрей Файт, Котэ Даушвили, Л. Романов, Виктор Кулаков, Борис Андреев, Д. Мжавия, Николай Горлов, Федор Ищенко...
    Описание:
    Бандиты организованные сразу двумя иностранными резидентурами уводят из Алтая в Китай караваны с золотом. Командиру партизанского отряда Егору Перекрестову поставлена задача найти спрятанный в горах прииск. Цена выполнения этого задания будет исключительно высока.



    Источник: DVD5 R5
    Качество фильма видео: DVDRip
    Тип видео видео: AVI
    Информация о видео: 688x512 (4: 3), 25 fps, XviD ~ 1217 kbps avg, 0.138 bit/pixel
    Информация о звуке: 48 kHz, MP3 2.0, 128 kbps
    Раздача от:
    MediaInfo

    Общее
    Полное имя : Zolotaya.tropa.1945.DVDRip-745_New-team_by_AVP_Studio.avi
    Формат : AVI
    Формат/Информация : Audio Video Interleave
    Размер файла : 745 Мбайт
    Продолжительность : 1 ч. 16 м.
    Общий поток : 1355 Кбит/сек
    Программа кодирования : VirtualDubModRus 1.5.10.2 (build 2542/release)
    Библиотека кодирования : VirtualDubMod build 2542/release
    Видео
    Идентификатор : 0
    Формат : MPEG-4 Visual
    Профиль формата : Advanced Simple@L5
    Параметр BVOP формата : 1
    Параметр QPel формата : Нет
    Параметр GMC формата : Без точки перехода
    Параметр матрицы формата : Выборочная
    Идентификатор кодека : XVID
    Идентификатор кодека/Подсказка : XviD
    Продолжительность : 1 ч. 16 м.
    Битрейт : 1217 Кбит/сек
    Ширина : 688 пикселей
    Высота : 512 пикселей
    Соотношение сторон : 4: 3
    Частота кадров : 25, 000 кадров/сек
    Цветовое пространство : YUV
    Субдискретизация насыщенности : 4: 2: 0
    Битовая глубина : 8 бит
    Тип развёртки : Прогрессивная
    Метод сжатия : С потерями
    Бит/(Пиксели*Кадры) : 0.138
    Размер потока : 669 Мбайт (90%)
    Библиотека кодирования : XviD 73
    Аудио
    Идентификатор : 1
    Формат : MPEG Audio
    Версия формата : Version 1
    Профиль формата : Layer 3
    Идентификатор кодека : 55
    Идентификатор кодека/Подсказка : MP3
    Продолжительность : 1 ч. 16 м.
    Вид битрейта : Постоянный
    Битрейт : 128 Кбит/сек
    Каналы : 2 канала
    Частота : 48, 0 КГц
    Метод сжатия : С потерями
    Размер потока : 70, 4 Мбайт (9%)
    Выравнивание : Соединение по промежуткам
    Продолжительность промежутка : 40 мс. (1, 00 видеокадр)
    Время предзагрузки промежутка : 504 мс.
    Библиотека кодирования : LAME3.99r
    Залил: AVPStudio

    Онлайн видео Золотая тропа (1945) DVDRip от New


    Размер скачиваемого торрента: 744.86 MB (781041664 Bytes)


    Золотая тропа (1945) DVDRip от New-Team
    загрузка...
    Рейтинг →
     (голосов: 1, оценка 4/5, голосовать можно 1 раз )

    Другие торренты по теме:

  • Луни Тюнз. Золотая коллекция. Том 1. Диск 2 / Looney Tunes Golden Collection Volume One Part 2 (2012) DVD5
  • Луни Тюнз. Золотая коллекция. Том 1. Диск 1 / Looney Tunes Golden Collection Volume One Part 1 (2006) DVD-5
  • Луни Тюнз. Золотая коллекция. Том 1. Диск 3 / Looney Tunes Golden Collection Volume One Part 3 (2012) DVD5
  • Луни Тюнз. Золотая коллекция. Том 1. Диск 4 / Looney Tunes Golden Collection Volume One Part 4 (2012) DVD5
  • VA - Шедевры классики. Золотая серия 2 (2013) MP3
  • ВИА Песняры - Золотая коллекция (2009) MP3
  • Сектор Газа - Лучшее 2CD (Золотая коллекция) (1987-2000) MP3
  • Сборник - Золотая коллекция радио Шансон №8 (2013) MP3


    • Комментарии (0):

      Информация

      Информация

        Посетители, находящиеся в группе Гости, не могут оставлять комментарии в данной новости.

        ↓ Меню



        ↓ Опрос

        А Вы добавили сайт в закладки?
        Да
        Не


        Top 10 за месяц (Фильмы)