.
Авторизация | Регистрация
Хочешь лучшие торренты? Добавь свой email!
Добавить
» » Преданная поваренной книге 2 / Mi wo Tsukushi Ryoricho 2 (2014) TVRip | L1 скачать торрент бесплатно




    Преданная поваренной книге 2 / Mi wo Tsukushi Ryoricho 2 (2014) TVRip | L1 скачать торрент бесплатно

    Опубликовал: Админ | Дата: 22-04-2015, 08:35 | Просмотров: 96


    Детально о кино
    Русское название:Преданная поваренной книге 2
    Русское название в мировом прокате:Devoted Cookbook 2/Mi wo Tsukushi Ryoricho 2
    Создали в:2014
    Категория жанра:История, Драма
    Главный режиссер:Катаяма Осаму

    Актеры
    Китагава Кейко, Хираока Юта, Исии Момока, Такахаси Иссэй, Кандзия Сихори, Катаока Цурутаро, Мурои Сигэру, Осуги Рэн, Мацуока Масахиро

    Сюжет фильма

    Весна 1814. Ресторан Тсуру-Ка набирает популярность среди жителей после того как шеф-повар Мио выиграла соревнование по кулинарии. Хозяин ресторана нанимает девочку по имени Фуки, чтобы та приглядывала за обувью посетителей. Она – сирота, поэтому все вокруг симпатизируют ей. Вскоре в ресторане появляется известный писатель Сейемон. Он постоянно жалуется на еду Мио, но продолжает возвращаться каждый день.Через некоторое время главный конкурент Тсуру-Ка ресторан Торуюро начинает копировать меню Тсуру-Ка, а потом и вовсе подавать блюда, которые Мио только собиралась включить в меню.
    Снималось в:Япония
    Время просмотра:01:49:05
    Перевод текста:Любительский (одноголосый)GREEN TEA (Екатерина Юрьева )
    Файл
    Кодек для видео:XviD (AVI)
    Качество фильма:TVRip
    Информация о видео:XviD, 720x400, 1650 Kbps
    Информация о звуке:AC3, 2 ch, 256 Kbps
    Субтитры:нет

    Скриншоты
    MediaInfo
    General
    Complete name : G:ДИСК 2?1.ФИЛЬМЫПреданная поваренной книге 2 Devoted Cookbook 2 Mi wo Tsukushi Ryoricho 2 (2014)Devoted Cookbook 2 Mi wo Tsukushi Ryoricho 2 (2014) TVRip.avi
    Format : AVI
    Format/Info : Audio Video Interleave
    Format profile : OpenDML
    File size : 1.46 GiB
    Duration : 1h 49mn
    Overall bit rate : 1 919 Kbps
    Writing application : XviD4PSP 6.0/54.29.105
    Video
    ID : 0
    Format : MPEG-4 Visual
    Format profile : Advanced Simple@L5
    Format settings, BVOP : 1
    Format settings, QPel : No
    Format settings, GMC : No warppoints
    Format settings, Matrix : Default (H.263)
    Codec ID : XVID
    Codec ID/Hint : XviD
    Duration : 1h 49mn
    Bit rate : 1 650 Kbps
    Width : 720 pixels
    Height : 400 pixels
    Display aspect ratio : 16:9
    Frame rate : 29.970 fps
    Color space : YUV
    Chroma subsampling : 4:2:0
    Bit depth : 8 bits
    Scan type : Progressive
    Compression mode : Lossy
    Bits/(Pixel*Frame) : 0.191
    Stream size : 1.26 GiB (86%)
    Writing library : XviD 64
    Audio
    ID : 1
    Format : AC-3
    Format/Info : Audio Coding 3
    Mode extension : CM (complete main)
    Format settings, Endianness : Big
    Codec ID : 2000
    Duration : 1h 49mn
    Bit rate mode : Constant
    Bit rate : 256 Kbps
    Channel(s) : 2 channels
    Channel positions : Front: L R
    Sampling rate : 48.0 KHz
    Bit depth : 16 bits
    Compression mode : Lossy
    Stream size : 200 MiB (13%)
    Alignment : Aligned on interleaves
    Interleave, duration : 32 ms (0.96 video frame)

    Релиз подготовил:

    Онлайн видео Преданная поваренной книге 2


    Размер скачиваемого торрента: 1.46 GB (1570359734 Bytes)

    Преданная поваренной книге 2/Mi wo Tsukushi Ryoricho 2 (2014) TVRip | L1
    загрузка...
    Рейтинг →
     (голосов: 1, оценка 4/5, голосовать можно 1 раз )

    Другие торренты по теме:

  • Стариков Николай Викторович - Преданная Россия. Наши союзники от Бориса Годунова до Николая II (2011) MP3
  • Самая преданная поклонница / Number One Fan (1995) SATRip
  • Преданная красота / Beauty Betrayed (2002) SATRip


    • Комментарии (0):

      Информация

      Информация

        Посетители, находящиеся в группе Гости, не могут оставлять комментарии в данной новости.

        ↓ Меню



        ↓ Опрос

        А Вы добавили сайт в закладки?
        Да
        Не


        Top 10 за месяц (Фильмы)